↑↓Torrent.by
Поиск
Логин: Регистрация
Пароль: Восстановить пароль
Загрузка...

Пиры Валтасара, или ночь со Сталиным (1989) DVDRip-AVC от KORSAR

Скачать piry-valtasara-ili-noch-so-stalinym-1989-dvdrip-avc-ot-korsar.torrent
U Магнитная ссылка Размер: 1.93 GB Раздают: 53 Качают: 25 Добавлен: 2018-07-21 05:45:06
Пиры Валтасара, или ночь со Сталиным (1989) DVDRip-AVC от KORSAR

Название: Пиры Валтасара, или ночь со Сталиным
Год выхода: 1989
Жанр:  Драма, история
Режиссер: Юрий Кара
В ролях: Алексей Петренко, Александр Феклистов, Евгенией Евстигнеев, Сергей Никоненко, Валентин Гафт, Тамара Яндиева, Лариса Белогурова, Анатолий Гузенко, Вахтанг Возба

О фильме: Фильм поставлен по мотивам главы «Пиры Валтасара» из романа Фазиля Искандера «Сандро из Чегема». Действие разворачивается в середине 30-х годов минувшего века. Герой картины, солист ансамбля народного танца, попадает на роскошный ночной пир, устроенный тогдашним руководителем Абхазии Нестором Лакобой в честь приезда Сталина. Блестящее выступление Сандро из Чегема перед гостями едва не оканчивается для него катастрофой.

Страна: СССР
Студия: Киностудия им. М. Горького
Продолжительность: 01:23:14
Перевод: Не требуется

Файл
Кодек: х264
Качество: DVDRip-AVC
Видео: MPEG-4 AVC, 720x576@768x576, 25.000 fps, 2650 Кбит/с
Аудио 1: AC3, 6 ch, 448 Кбит/с
Аудио 2: AC3, 1 ch, 224 Кбит/с
Субтитры: Нет
Навигация по главам: Есть

Релиз:


[+] MediaInfo
Общее
Уникальный идентификатор                 : 234823432761340586040304660131048782174 (0xB0A9591BC37269B58E809F81A642F95E)
Полное имя                               : Пиры Валтасара, или Ночь со Сталиным.1989.DVDRip-AVC.KORSAR.mkv
Формат                                   : Matroska
Версия формата                           : Version 2
Размер файла                             : 1,93 Гбайт
Продолжительность                        : 1 ч. 23 м.
Общий поток                              : 3324 Кбит/сек
Дата кодирования                         : UTC 2016-08-13 16:52:36
Программа кодирования                    : mkvmerge v5.8.0 ('No Sleep / Pillow') built on Sep  2 2012 15:37:04
Библиотека кодирования                   : libebml v1.2.3 + libmatroska v1.3.0

Видео
Идентификатор                            : 1
Формат                                   : AVC
Формат/Информация                        : Advanced Video Codec
Профиль формата                          : High@L4.1
Параметр CABAC формата                   : Да
Параметр RefFrames формата               : 15 кадров
Идентификатор кодека                     : V_MPEG4/ISO/AVC
Продолжительность                        : 1 ч. 23 м.
Битрейт                                  : 2650 Кбит/сек
Ширина                                   : 720 пикселей
Высота                                   : 576 пикселей
Соотношение сторон                       : 4:3
Режим частоты кадров                     : Постоянный
Частота кадров                           : 25,000 кадров/сек
Стандарт вещания                         : PAL
Цветовое пространство                    : YUV
Субдискретизация насыщенности            : 4:2:0
Битовая глубина                          : 8 бит
Тип развёртки                            : Прогрессивная
Бит/(Пиксели*Кадры)                      : 0.256
Размер потока                            : 1,50 Гбайт (78%)
Библиотека кодирования                   : x264 core 148 r2638 7599210
Настройки программы                      : cabac=1 / ref=15 / deblock=1:-2:-2 / analyse=0x3:0x133 / me=umh / subme=10 / psy=1 / psy_rd=1.05:0.07 / mixed_ref=1 / me_range=32 / chroma_me=1 / trellis=2 / 8x8dct=1 / cqm=0 / deadzone=21,11 / fast_pskip=0 / chroma_qp_offset=-3 / threads=12 / lookahead_threads=3 / sliced_threads=0 / nr=0 / decimate=0 / interlaced=0 / bluray_compat=0 / constrained_intra=0 / bframes=10 / b_pyramid=2 / b_adapt=2 / b_bias=0 / direct=3 / weightb=1 / open_gop=0 / weightp=2 / keyint=250 / keyint_min=25 / scenecut=40 / intra_refresh=0 / rc_lookahead=40 / rc=2pass / mbtree=0 / bitrate=2650 / ratetol=1.0 / qcomp=0.63 / qpmin=0 / qpmax=39 / qpstep=4 / cplxblur=20.0 / qblur=0.5 / vbv_maxrate=50000 / vbv_bufsize=62500 / nal_hrd=none / filler=0 / ip_ratio=1.40 / pb_ratio=1.30 / aq=1:0.90
Язык                                     : English
Default                                  : Да
Forced                                   : Нет
Цветовой диапазон                        : Limited
Основные цвета                           : BT.601 PAL
Характеристики трансфера                 : BT.470 System B, BT.470 System G
Коэффициенты матрицы                     : BT.601

Аудио #1
Идентификатор                            : 2
Формат                                   : AC-3
Формат/Информация                        : Audio Coding 3
Параметр Endianness формата              : Big
Идентификатор кодека                     : A_AC3
Продолжительность                        : 1 ч. 23 м.
Вид битрейта                             : Постоянный
Битрейт                                  : 448 Кбит/сек
Каналы                                   : 6 каналов
Расположение каналов                     : Front: L C R, Side: L R, LFE
Частота                                  : 48,0 КГц
Частота кадров                           : 31,250 кадров/сек (1536 SPF)
Битовая глубина                          : 16 бит
Метод сжатия                             : С потерями
Задержка видео                           : 246 мс.
Размер потока                            : 267 Мбайт (13%)
Язык                                     : Russian
Default                                  : Да
Forced                                   : Нет

Аудио #2
Идентификатор                            : 3
Формат                                   : AC-3
Формат/Информация                        : Audio Coding 3
Параметр Endianness формата              : Big
Идентификатор кодека                     : A_AC3
Продолжительность                        : 1 ч. 23 м.
Вид битрейта                             : Постоянный
Битрейт                                  : 224 Кбит/сек
Каналы                                   : 1 канал
Расположение каналов                     : Front: C
Частота                                  : 48,0 КГц
Частота кадров                           : 31,250 кадров/сек (1536 SPF)
Битовая глубина                          : 16 бит
Метод сжатия                             : С потерями
Задержка видео                           : 246 мс.
Размер потока                            : 133 Мбайт (7%)
Язык                                     : Russian
Default                                  : Нет
Forced                                   : Нет

Меню
00:00:00.000                             : ru:Chapter 1
00:07:28.200                             : ru:Chapter 2
00:17:26.760                             : ru:Chapter 3
00:28:13.800                             : ru:Chapter 4
00:39:34.920                             : ru:Chapter 5
00:48:07.080                             : ru:Chapter 6
01:01:05.640                             : ru:Chapter 7
01:10:41.160                             : ru:Chapter 8
01:14:49.800                             : ru:Chapter 9
01:17:42.120                             : ru:Chapter 10



Скриншоты:
[+] Всего файлов в раздаче - 1:
Пиры Валтасара или Ночь со Сталиным_1989-DVDRip-AVC.mkv1.93 GB

Текущая раздача:
ДатаКомментарии    РазмерПиры
2018-07-21 U Пиры Валтасара, или ночь со Сталиным (1989) DVDRip-AVC от KORSAR 1 К 1.93 GB ↑ 53 ↓ 25

Похожие раздачи по запросу - пиры:
2018-08-05 U Пиры Валтасара, или ночь со Сталиным (1989) DVDRip 1.37 GB ↑ 41 ↓ 21

Отзывы
Golod
Как то 90-е в буйствах прошли. Не видел я этот фильм. Просто великолепен! Какая здесь Смерть Сталина.

Зарегистрируйтесь чтобы добавить комментарий.
Обратная связь
Copyleft ©