↑↓Torrent.by
Поиск
Логин: Регистрация
Пароль: Восстановить пароль
Загрузка...

Робин Уильямс: Загляни в мою душу / Robin Williams: Come Inside My Mind (2018) DVBRip от R.G.Resident | P2

Скачать robin-uilyams-zaglyani-v-moyu-dushu-williams-come-inside-my-mind-2018-dvbrip-ot-r-g-resident-p2.torrent
U Магнитная ссылка Размер: 1.46 GB Раздают: 35 Качают: 9 Добавлен: 2018-07-21 05:54:27
Робин Уильямс: Загляни в мою душу / Robin Williams: Come Inside My Mind (2018) DVBRip от R.G.Resident | P2

Название: Робин Уильямс: Загляни в мою душу
Оригинальное название: Robin Williams: Come Inside My Mind
Год выпуска: 2018
Страна: США
Жанр: документальный
Перевод: Профессиональный [двухголосый] (SDI media)
Продолжительность: 01:51:40
Режиссер: Марина Зинович
В ролях: Робин Уильямс (играет самого себя, хроника), Билли Кристал (играет самого себя), Пэм Доубер (играет саму себя), Вупи Голдберг (играет саму себя), Бобкэт Голдтуэйт (играет самого себя), Эрик Айдл (играет самого себя), Дэвид Леттерман (играет самого себя), Стив Мартин (играет самого себя), Дэвид Стейнберг (играет самого себя), Валери Веларди (играет саму себя)

Описание:
Трогательный и глубокий документальный портрет одного из самых обожаемых комиков в мире. Используя богатый архив, который до этого никто никогда не видел, авторы фильма рассказывают о необыкновенной жизни и карьере Робина Уильямса. Зритель увидит, какой путь прошел комик: выступления в клубах, успех сериала «Морк и Минди», проблемы с алкоголем и наркотиками, смерть близкого друга, общемировая известность, премия «Оскар» и тяжелая депрессия. Лишь близкие знали, какая боль скрывалась за той маской, которую Уильямс надевал во время выступлений или на съемочной площадке. Продюсером «Загляни в мою душу» стал лауреат премии «Оскар» Алекс Гибни.

 
Качество: DVBRip
Формат: AVI
Видео: XviD, 704x400 (16:9), 1477 kbps, 25 fps, 0,210 bpp
Аудио: AC3 / 5.1 / 48 kHz / 384 kbps /
Семпл

Релиз:


[+] Дополнительная информация:
Текст читали Юлия Яблонская и Илья Сланевский



[+] ОтчетМедиаИнфо

General
Complete name                            : F:Robin.Williams.Come.Inside.My.Mind.2018.DVBRip.R.G.Resident.avi
Format                                   : AVI
Format/Info                              : Audio Video Interleave
File size                                : 1.46 GiB
Duration                                 : 1 h 51 min
Overall bit rate                         : 1 871 kb/s
Writing application                      : VirtualDubModRus 1.5.10.2 (build 2542/release)
Writing library                          : VirtualDubMod build 2542/release

Video
ID                                       : 0
Format                                   : MPEG-4 Visual
Format profile                           : Advanced Simple@L5
Format settings, BVOP                    : 1
Format settings, QPel                    : No
Format settings, GMC                     : No warppoints
Format settings, Matrix                  : Custom
Codec ID                                 : XVID
Codec ID/Hint                            : XviD
Duration                                 : 1 h 51 min
Bit rate                                 : 1 478 kb/s
Width                                    : 704 pixels
Height                                   : 400 pixels
Display aspect ratio                     : 16:9
Frame rate                               : 25.000 FPS
Color space                              : YUV
Chroma subsampling                       : 4:2:0
Bit depth                                : 8 bits
Scan type                                : Progressive
Compression mode                         : Lossy
Bits/(Pixel*Frame)                       : 0.210
Stream size                              : 1.15 GiB (79%)
Writing library                          : XviD 73

Audio
ID                                       : 1
Format                                   : AC-3
Format/Info                              : Audio Coding 3
Mode extension                           : CM (complete main)
Format settings, Endianness              : Big
Codec ID                                 : 2000
Duration                                 : 1 h 51 min
Bit rate mode                            : Constant
Bit rate                                 : 384 kb/s
Channel(s)                               : 6 channels
Channel positions                        : Front: L C R, Side: L R, LFE
Sampling rate                            : 48.0 kHz
Frame rate                               : 31.250 FPS (1536 spf)
Compression mode                         : Lossy
Stream size                              : 307 MiB (21%)
Alignment                                : Split accross interleaves
Interleave, duration                     : 40  ms (1.00 video frame)
Interleave, preload duration             : 500  ms



Скриншоты:
[+] Всего файлов в раздаче - 1:
Robin.Williams.Come.Inside.My.Mind.2018.DVBRip.R.G.Resident.avi1.46 GB

Текущая раздача:
ДатаКомментарии    РазмерПиры
2018-07-21 U Робин Уильямс: Загляни в мою душу / Robin Williams: Come Inside My Mind (2018) DVBRip от R.G.Resident | P2 1.46 GB ↑ 35 ↓ 9

Показать еще раздачи по запросу робин:
Вчера U Робин Гуд / Robin Hood (2010) BDRip-HEVC 1080p от Cthulhu | D, A | Directors Cut 8.78 GB ↑ 47 ↓ 20
2018-07-22 U Робин Уильямс: Загляни в мою душу / Robin Williams: Come Inside My Mind (2018) WEB-DL 1080p | P2 2К5.86 GB ↑ 28 ↓ 6
2018-05-28 U Стрелы Робин Гуда (1975) DVDRip-AVC от KORSAR | Режиссёрская версия 2.00 GB ↑ 27 ↓ 30
2018-02-17 U Прощай, Кристофер Робин / Goodbye Christopher Robin (2017) BDRip 720p | Лицензия 7.85 GB ↑ 62 ↓ 31
2018-02-17 U Прощай, Кристофер Робин / Goodbye Christopher Robin (2017) BDRip-AVC от OlLanDGroup | Лицензия 2.37 GB ↑ 47 ↓ 18
2018-02-17 U Прощай, Кристофер Робин / Goodbye Christopher Robin (2017) BDRip 1080p | Лицензия 13.33 GB ↑ 46 ↓ 44
2018-02-17 U Прощай, Кристофер Робин / Goodbye Christopher Robin (2017) BDRip от MegaPeer | Лицензия 1К1.46 GB ↑ 58 ↓ 20

Отзывы
Зарегистрируйтесь чтобы добавить комментарий.
Обратная связь
Copyleft ©