↑↓Torrent.by
Поиск
Логин: Регистрация
Пароль: Восстановить пароль
Загрузка...

Короткометражки Overwatch / Overwatch (2016) WEB-DLRip от Portablius | D

Скачать korotkometrazhki-overwatch-2016-web-dlrip-ot-portablius-d.torrent
U Магнитная ссылка Размер: 221.13 MB Раздают: 132 Качают: 11 Добавлен: 2018-07-21 10:48:26
Короткометражки Overwatch / Overwatch (2016) WEB-DLRip от Portablius | D

Название: Короткометражки Overwatch: Общий сбор / Жизнь и смерть / Два дракона / Герой
Оригинальное название: Overwatch
Год выхода: 2016
Жанр: Короткометражка, фантастика, боевик

О фильме: Короткие анимационные ролики, созданные Blizzard Entertainment, которые раскрывают историю героев и мира Overwatch.
В короткометражке «Общий сбор» речь пойдет об Уинстоне — горилле, созданной с помощью генной инженерии. Уинстон — блестящий ученый, который мечтает о возвращении героического прошлого и борется с желанием вновь созвать агентов Overwatch вместе. Тем временем в его лабораторию на заброшенном посту наблюдения Гибралтар вторгаются силы террористической организации «Коготь».
В «Жизни и смерти» речь идет о Роковой вдове — лучшей из убийц «Когтя», которая уничтожает жертв уверенно и хладнокровно. В этой серии мы на один короткий, но судьбоносный вечер перенесемся на Кингз Роу, и вы увидите, как одна-единственная смерть может изменить ход истории.
В третьей короткометражке проясняется история одного из самых напряженных и трагических конфликтов в мире Overwatch — между двумя братьями, сыновьями главы клана Шимада: Хандзо и Гэндзи. Хандзо возвращается в свой родной город Ханамура, чтобы искупить старые провинности и дать бой призракам прошлого.
В «Герое» мы проследим за действиями непримиримого борца Солдата-76 на личной миссии в Дорадо, где он расследует незаконную деятельность банды «Лос Муэртос». Однако одно неожиданное обстоятельство рискует сорвать всю операцию...

Страна: США
Студия: Blizzard Entertainment
Продолжительность: 00:06:38 + 00:08:03 + 00:08:01 + 00:06:25
Перевод: Профессиональный (дублированный)
Субтитры: Нет

Файл
Кодек: XviD
Качество: WEB-DLRip
Видео: 720x304 (2.37:1), 24 fps, XviD build 73 ~913 kbps avg, 0.17 bit/pixel
Звук: 44.100 kHz, MPEG Layer 3, 2 ch, ~128.00 kbps avg
[+] MediaInfo
General
Complete name               : Overwatch.Obschii.Sbor.2016.WEB-DLRip.ot.Portablius.avi
Format                      : AVI
Format/Info                 : Audio Video Interleave
File size                   : 60.3 MiB
Duration                    : 8 min 1 s
Overall bit rate            : 1 051 kb/s
Writing application         : VirtualDubMod 1.5.10.3 | www.virtualdub-fr.org || (build 2550/release)
Writing library             : VirtualDubMod build 2550/release

Video
ID                          : 0
Format                      : MPEG-4 Visual
Format profile              : Advanced Simple@L5
Format settings, BVOP       : 1
Format settings, QPel       : No
Format settings, GMC        : No warppoints
Format settings, Matrix     : Custom
Codec ID                    : XVID
Codec ID/Hint               : XviD
Duration                    : 8 min 1 s
Bit rate                    : 914 kb/s
Width                       : 720 pixels
Height                      : 304 pixels
Display aspect ratio        : 2.35:1
Frame rate                  : 24.000 FPS
Color space                 : YUV
Chroma subsampling          : 4:2:0
Bit depth                   : 8 bits
Scan type                   : Progressive
Compression mode            : Lossy
Bits/(Pixel*Frame)          : 0.174
Stream size                 : 52.4 MiB (87%)
Writing library             : XviD 73

Audio
ID                          : 1
Format                      : MPEG Audio
Format version              : Version 1
Format profile              : Layer 3
Codec ID                    : 55
Codec ID/Hint               : MP3
Duration                    : 8 min 1 s
Bit rate mode               : Constant
Bit rate                    : 128 kb/s
Channel(s)                  : 2 channels
Sampling rate               : 44.1 kHz
Compression mode            : Lossy
Stream size                 : 7.34 MiB (12%)
Alignment                   : Split accross interleaves
Interleave, duration        : 42  ms (1.00 video frame)
Interleave, preload duratio : 500  ms
Writing library             : LAME3.99r
Encoding settings           : -m s -V 4 -q 2 -lowpass 17 -b 128




Скриншоты:
[+] Всего файлов в раздаче - 4:
Overwatch.Dva.Drakona.2016.WEB-DLRip.ot.Portablius.avi60.33 MB
Overwatch.Geroi.2016.WEB-DLRip.ot.Portablius.avi50.27 MB
Overwatch.Obschii.Sbor.2016.WEB-DLRip.ot.Portablius.avi60.30 MB
Overwatch.Zhizn.i.Smert.2016.WEB-DLRip.ot.Portablius.avi50.23 MB

Текущая раздача:
ДатаКомментарии    РазмерПиры
2018-07-21 U Короткометражки Overwatch / Overwatch (2016) WEB-DLRip от Portablius | D 221.13 MB ↑ 132 ↓ 11

Похожие раздачи по запросу - короткометражки:
2018-05-28 U Короткометражки Marvel / Marvel One-Shots (2011-2014) BDRip | КПК | P, L 249.81 MB ↑ 54 ↓ 15
2018-04-18 U Короткометражки Oats Studios / Oats Studios (2017) WEBRip | AlexFilm 1.12 GB ↑ 122 ↓ 19
2017-12-21 U Анимационные 3Д короткометражки / 3D Animated Shorts (1953-2017) BDRip 1080p от Ash61 | 3D-Video | halfOU 17.46 GB ↑ 56 ↓ 82
2017-10-18 U Короткометражки Oats Studios / Oats Studios (2017) WEBRip | AlexFilm 1.11 GB ↑ 301 ↓ 118
2017-03-05 U Короткометражки Marvel: Коллекция / Marvel One-Shot: The Collection (2011-2014) BDRip 1080p HEVC | L, P 1К783.80 MB ↑ 98 ↓ 48
2016-05-25 U Короткометражки Overwatch / Overwatch (2016) WEB-DL 720p | D 280.70 MB ↑ 151 ↓ 7

Отзывы
Зарегистрируйтесь чтобы добавить комментарий.
Обратная связь
Copyleft ©