↑↓Torrent.by
Поиск
Логин: Регистрация
Пароль: Восстановить пароль
Загрузка...

Танки (2018) BDRip-AVC от OlLanDGroup | Лицензия

Скачать tanki-2018-bdrip-avc-ot-ollandgroup-licenziya.torrent
U Магнитная ссылка Размер: 1.46 GB Раздают: 95 Качают: 34 Добавлен: 2018-07-21 14:47:38
Танки (2018) BDRip-AVC от OlLanDGroup | Лицензия

Танки
«Первые непобедимые»

Год выпуска: 2018
Страна: Россия
Производство: Продюсерская компания «Медиа-Трест», «Двадцатый Век Фокс СНГ»
Жанр:  Приключения, история, военный

Режиссёр: Ким Дружинин
В ролях: Андрей Мерзликин, Аглая Тарасова, Александр Тютин, Сергей Стукалов, Антон Филипенко, Алексей Овсянников, Сергей Четвертков, Николай Горшков, Дмитрий Поднозов, Юрий Ицков

Перевод: Не требуется | Лицензия
Субтитры: Нет
Реклама: Отсутствует

Описание: На пороге войны с фашистской Германией инженер Михаил Кошкин разрабатывает прототип нового инновационного танка Т-34. Чтобы доказать уникальность боевой машины, Кошкин и его команда отправляются в Москву на танках своим ходом. Но вскоре пробег превращается в непредсказуемую гонку, где бездорожье лишь меньшее из зол… Пройдя череду опасных приключений и благодаря безупречным техническим и боевым качествам новых танков, героям удается одержать верх над преследователями и доказать превосходство Т-34.

Качество: BDRip-AVC
Продолжительность: 01:33:05

Формат: MKV
Видео кодек: MPEG-4 AVC
Аудио кодек: AC3
Видео: 912x408 (2.25:1), 24,000 fps, x264 ~1 795 kbps avg, 0.201 bit/pixel
Аудио: 48 kHz, AC3 Dolby Digital, 3/2 (L,C,R,l,r) + LFE ch, ~448.00 kbps avg | RUS (Лицензия)

Дата премьеры (РФ): 26 апреля 2018, «Двадцатый Век Фокс СНГ»
Цифровой релиз: 31 мая 2018, «Планета информ»

Релиз: Rip by:


[+] MediaInfo

Общее
Уникальный идентификатор                 : 71129453484996521645269787551126136317 (0x358308D106598309C976315A444625FD)
Полное имя                               : F:OlLanDGroupTanki.2018.BDRip(AVC).OlLanDGroup.mkv
Формат                                   : Matroska
Версия формата                           : Version 4 / Version 2
Размер файла                             : 1,46 Гбайт
Продолжительность                        : 1 ч. 33 м.
Общий поток                              : 2245 Кбит/сек
Название фильма                          : Tanki.2018   #TorpedoUK#
Дата кодирования                         : UTC 2018-07-21 03:47:08
Программа кодирования                    : mkvmerge v25.0.0 ('Prog Noir') 64-bit
Библиотека кодирования                   : libebml v1.3.6 + libmatroska v1.4.9

Видео
Идентификатор                            : 1
Формат                                   : AVC
Формат/Информация                        : Advanced Video Codec
Профиль формата                          : High@L4.1
Параметр CABAC формата                   : Да
Параметр ReFrames формата                : 10 кадров
Идентификатор кодека                     : V_MPEG4/ISO/AVC
Продолжительность                        : 1 ч. 33 м.
Битрейт                                  : 1795 Кбит/сек
Ширина                                   : 912 пикселей
Высота                                   : 408 пикселей
Соотношение сторон                       : 2,25:1
Режим частоты кадров                     : Постоянный
Частота кадров                           : 24,000 кадра/сек
Цветовое пространство                    : YUV
Субдискретизация насыщенности            : 4:2:0
Битовая глубина                          : 8 бит
Тип развёртки                            : Прогрессивная
Бит/(Пиксели*Кадры)                      : 0.201
Размер потока                            : 1,17 Гбайт (80%)
Библиотека кодирования                   : x264 core 146 r2538 121396c
Настройки программы                      : cabac=1 / ref=10 / deblock=1:-3:-3 / analyse=0x3:0x113 / me=umh / subme=11 / psy=1 / psy_rd=0.99:0.04 / mixed_ref=1 / me_range=48 / chroma_me=1 / trellis=2 / 8x8dct=1 / cqm=0 / deadzone=21,11 / fast_pskip=1 / chroma_qp_offset=-3 / threads=6 / lookahead_threads=1 / sliced_threads=0 / nr=0 / decimate=1 / interlaced=0 / bluray_compat=0 / constrained_intra=0 / bframes=10 / b_pyramid=2 / b_adapt=2 / b_bias=0 / direct=3 / weightb=1 / open_gop=0 / weightp=2 / keyint=240 / keyint_min=24 / scenecut=40 / intra_refresh=0 / rc_lookahead=40 / rc=2pass / mbtree=1 / bitrate=1795 / ratetol=1.0 / qcomp=0.60 / qpmin=0 / qpmax=69 / qpstep=4 / cplxblur=20.0 / qblur=0.5 / vbv_maxrate=50000 / vbv_bufsize=62500 / nal_hrd=none / filler=0 / ip_ratio=1.40 / aq=1:1.00
Default                                  : Да
Forced                                   : Нет

Аудио
Идентификатор                            : 2
Формат                                   : AC-3
Формат/Информация                        : Audio Coding 3
Расширение режима                        : CM (complete main)
Параметр Endianness формата              : Big
Идентификатор кодека                     : A_AC3
Продолжительность                        : 1 ч. 33 м.
Вид битрейта                             : Постоянный
Битрейт                                  : 448 Кбит/сек
Каналы                                   : 6 каналов
Расположение каналов                     : Front: L C R, Side: L R, LFE
Частота                                  : 48,0 КГц
Частота кадров                           : 31,250 кадров/сек (1536 spf)
Битовая глубина                          : 16 бит
Метод сжатия                             : С потерями
Размер потока                            : 298 Мбайт (20%)
Заголовок                                : License
Язык                                     : Russian
Default                                  : Да
Forced                                   : Нет

Меню
00:00:00.000                             : :Chapter 1
00:01:13.416                             : :Chapter 2
00:10:40.416                             : :Chapter 3
00:20:29.583                             : :Chapter 4
00:32:30.208                             : :Chapter 5
00:44:52.791                             : :Chapter 6
00:57:32.791                             : :Chapter 7
01:07:56.666                             : :Chapter 8
01:20:44.583                             : :Chapter 9




Скриншоты:
[+] Всего файлов в раздаче - 1:
Tanki.2018.BDRip(AVC).OlLanDGroup.mkv1.46 GB

Текущая раздача:
ДатаКомментарии    РазмерПиры
2018-07-21 U Танки (2018) BDRip-AVC от OlLanDGroup | Лицензия 1.46 GB ↑ 95 ↓ 34

Показать еще раздачи по запросу танки:
2018-07-30 U Танки (2018) BDRip-HEVC 1080p от ХиМиК 6.42 GB ↑ 53 ↓ 37
2018-07-21 U Танки (2018) BDRip от ExKinoRay | Лицензия 1.46 GB ↑ 66 ↓ 6
2018-07-19 U Танки (2018) BDRip от MegaPeer | Лицензия 1.46 GB ↑ 72 ↓ 39
2018-07-18 U Танки (2018) HDRip от GeneralFilm | Лицензия 745.07 MB ↑ 86 ↓ 14
2018-07-16 U Танки (2018) BDRip-AVC | Лицензия 2.06 GB ↑ 63 ↓ 20
2018-07-16 U Танки (2018) BDRip 720p | Лицензия 4.97 GB ↑ 73 ↓ 24
2018-07-16 U Танки (2018) BDRip 1080p | Лицензия 7.90 GB ↑ 183 ↓ 54

Отзывы
Зарегистрируйтесь чтобы добавить комментарий.
Обратная связь
Copyleft ©