↑↓Torrent.by
Поиск
Логин: Регистрация
Пароль: Восстановить пароль
Загрузка...

Команда 33 (1987) DVDRip-AVC от KORSAR

Скачать komanda-33-1987-dvdrip-avc-ot-korsar.torrent
U Магнитная ссылка Размер: 1.21 GB Раздают: 142 Качают: 30 Добавлен: 2018-07-22 08:17:29
Команда 33 (1987) DVDRip-AVC от KORSAR

Название: Команда 33
Год выхода: 1987
Жанр:  Драма
Режиссер: Николай Гусаров
В ролях: Юрий Назаров, Александр Рахленко, Сергей Тезов, Сергей Созинов, Алексей Рождественский, Геннадий Сидоров, Валерий Немешаев, Владимир Белоусов, Милена Тонтегоде, Валерий Храмцов

О фильме: Подполковнику Никитину поручено сопровождать группу призывников к месту службы на Дальний Восток. Воинский эшелон идет туда несколько суток, и молодые солдаты постигают первые тяготы армейской жизни.

Страна: СССР
Продолжительность: 01:19:13
Перевод: Не требуется

Файл
Кодек: х264
Качество: DVDRip-AVC
Видео: MPEG-4 AVC, 664x556@708x556, 25.000 fps, 2000 Кбит/с
Аудио: AC3, 2 ch, 192 Кбит/с
Субтитры: Нет

Релиз:


[+] MediaInfo
Общее
Уникальный идентификатор                 : 220451414590676887471028215408154044441 (0xA5D965E78A41920CA9F2FFF04D92E819)
Полное имя                               : Команда.33.1987.DVDRip-AVC.KORSAR.mkv
Формат                                   : Matroska
Версия формата                           : Version 2
Размер файла                             : 1,21 Гбайт
Продолжительность                        : 1 ч. 19 м.
Общий поток                              : 2194 Кбит/сек
Дата кодирования                         : UTC 2016-08-11 12:02:25
Программа кодирования                    : mkvmerge v5.8.0 ('No Sleep / Pillow') built on Sep  2 2012 15:37:04
Библиотека кодирования                   : libebml v1.2.3 + libmatroska v1.3.0

Видео
Идентификатор                            : 1
Формат                                   : AVC
Формат/Информация                        : Advanced Video Codec
Профиль формата                          : High@L4.1
Параметр CABAC формата                   : Да
Параметр RefFrames формата               : 14 кадров
Идентификатор кодека                     : V_MPEG4/ISO/AVC
Продолжительность                        : 1 ч. 19 м.
Битрейт                                  : 2000 Кбит/сек
Ширина                                   : 664 пикселя
Высота                                   : 556 пикселей
Соотношение сторон                       : 1,273
Соотношение сторон в оригинале           : 1,274
Режим частоты кадров                     : Постоянный
Частота кадров                           : 25,000 кадров/сек
Цветовое пространство                    : YUV
Субдискретизация насыщенности            : 4:2:0
Битовая глубина                          : 8 бит
Тип развёртки                            : Прогрессивная
Бит/(Пиксели*Кадры)                      : 0.217
Размер потока                            : 1,08 Гбайт (89%)
Заголовок                                : Команда.33.1987.DVDRip-AVC.KORSAR
Библиотека кодирования                   : x264 core 148 r2638 7599210
Настройки программы                      : cabac=1 / ref=14 / deblock=1:-2:-2 / analyse=0x3:0x133 / me=umh / subme=10 / psy=1 / psy_rd=0.90:0.07 / mixed_ref=1 / me_range=32 / chroma_me=1 / trellis=2 / 8x8dct=1 / cqm=0 / deadzone=21,11 / fast_pskip=0 / chroma_qp_offset=-3 / threads=12 / lookahead_threads=3 / sliced_threads=0 / nr=0 / decimate=0 / interlaced=0 / bluray_compat=0 / constrained_intra=0 / bframes=10 / b_pyramid=2 / b_adapt=2 / b_bias=0 / direct=3 / weightb=1 / open_gop=0 / weightp=2 / keyint=250 / keyint_min=25 / scenecut=40 / intra_refresh=0 / rc_lookahead=40 / rc=2pass / mbtree=0 / bitrate=2000 / ratetol=1.0 / qcomp=0.63 / qpmin=0 / qpmax=39 / qpstep=4 / cplxblur=20.0 / qblur=0.5 / vbv_maxrate=50000 / vbv_bufsize=62500 / nal_hrd=none / filler=0 / ip_ratio=1.25 / pb_ratio=1.30 / aq=1:0.80
Язык                                     : English
Default                                  : Да
Forced                                   : Нет
Цветовой диапазон                        : Limited
Основные цвета                           : BT.601 PAL
Характеристики трансфера                 : BT.470 System B, BT.470 System G
Коэффициенты матрицы                     : BT.601

Аудио
Идентификатор                            : 2
Формат                                   : AC-3
Формат/Информация                        : Audio Coding 3
Параметр Endianness формата              : Big
Идентификатор кодека                     : A_AC3
Продолжительность                        : 1 ч. 19 м.
Вид битрейта                             : Постоянный
Битрейт                                  : 192 Кбит/сек
Каналы                                   : 2 канала
Расположение каналов                     : Front: L R
Частота                                  : 48,0 КГц
Частота кадров                           : 31,250 кадров/сек (1536 SPF)
Битовая глубина                          : 16 бит
Метод сжатия                             : С потерями
Размер потока                            : 109 Мбайт (9%)
Язык                                     : Russian
Default                                  : Да
Forced                                   : Нет



Скриншоты:
[+] Всего файлов в раздаче - 1:
Команда 33_1987-DVDRip-AVC.mkv1.21 GB

Текущая раздача:
ДатаКомментарии    РазмерПиры
2018-07-22 U Команда 33 (1987) DVDRip-AVC от KORSAR 1 К 1.21 GB ↑ 142 ↓ 30

Показать еще раздачи по запросу команда:
2018-03-14 U Команда Б [01-20 из 20] (2017) WEB-DL 1080p от Getty 18.04 GB ↑ 41 ↓ 94
2018-03-13 U Команда Б [01-20 из 20] (2017) WEB-DLRip 6.29 GB ↑ 90 ↓ 247
2018-03-13 U Команда Б [01-20 из 20] (2017) WEB-DLRip от Files-x 5.93 GB ↑ 221 ↓ 317
2018-03-12 U Команда Б [01-18 из 20] (2017) WEB-DL 720p от Getty 1К8.47 GB ↑ 83 ↓ 86
2018-03-06 U Команда Б [01-16 из 20] (2017) WEB-DL 1080p от Getty 14.45 GB ↑ 55 ↓ 66
2018-03-06 U Команда Б [01-16 из 20] (2017) WEB-DL 720p от Getty 7.52 GB ↑ 42 ↓ 102
2018-03-05 U Команда Б [01-16 из 20] (2017) WEB-DLRip-AVC от Files-x 4.89 GB ↑ 141 ↓ 526

Отзывы
nikitin3040
зачётный фильм!)

Зарегистрируйтесь чтобы добавить комментарий.
Обратная связь
Copyleft ©