↑↓Torrent.by
Поиск
Логин: Регистрация
Пароль: Восстановить пароль
Загрузка...

Неожиданный Задорнов (2018) HDTV 1080p от Generalfilm

Скачать neozhidannyy-zadornov-2018-hdtv-1080p-ot-generalfilm.torrent
U Магнитная ссылка Размер: 4.54 GB Раздают: 58 Качают: 14 Добавлен: 2018-07-22 08:18:59
Неожиданный Задорнов  (2018) HDTV 1080p от Generalfilm

Оригинальное название: Неожиданный Задорнов
Год выпуска: 2018
Жанр:  Документальный
Режиссер:Елена бомбина
Выпущено: Россия, НТВ

В ролях: Михаил Задорнов, Сергей Дроботенко, Максим Галкин, Елена Задорнова, Владимир калчан Елена бомбина

О фильме: К юбилею популярного сатирика Михаила Задорнова телеканал НТВ покажет новый документальный фильм, в котором собраны уникальные истории и неизвестные факты из личной жизни артиста. В основе проекта «Неожиданный Задорнов» — телевизионные съемки, в которых сатирик принимал участие незадолго до ухода: в них он откровенно рассказал о своей жизни. О близком человеке и друге вспомнят жена Елена Бомбина, дочь Елена, сестра Людмила, а также Максим Галкин, Геннадий Хазанов, Сергей Дроботенко, Алексей Кортнев, Владимир Качан и Ирина Безрукова. Большинству зрителей и поклонников Михаил Задорнов запомнился как непримиримый сатирик, который дерзко обличал мировую фальшь и глупость. Но это лишь одна сторона его жизни и творчества. Одни восхищались им и заполняли зрительские залы, других его сатирические монологи возмущали. В пьесе Григория Горина «Дом, который построил Свифт» есть точная фраза об участи сатириков всех времен: «Поэтов закидывают цветами. Сатириков — булыжниками. Сатирик, который перестал возмущать — кончился». В этом смысле сатира Задорнова будет вечно кому-то мешать и раздражать, продлевая тем самым память о нем.

Качество: HDTV (1080p)
Видео: AVC, 1920x1080 (16:9), 25.000 fps, 7 051 Kbps (0.136 bit/pixel)
Аудио: AC3, 2 ch, 192 Кбит/с
Продолжительность: 01:29:46
Язык: Русский

Релиз:
[+] ОтчетМедиаИнфо

General
Unique ID                                : 196812263124982079688671700155193635813 (0x9410A9C0C2065661B0112B44C00433E5)
Complete name                            : E:Запись с твNeozhidannyj Zadornov.2018.HDTV 1080p.by.White Smoke.R.G.Generalfilm.mkv
Format                                   : Matroska
Format version                           : Version 2
File size                                : 4.54 GiB
Duration                                 : 1 h 29 min
Overall bit rate mode                    : Constant
Overall bit rate                         : 7 218 kb/s
Movie name                               : Neozhidannyj Zadornov.2018.HDTV 1080p.by.White Smoke.R.G.Generalfilm.mkv
Encoded date                             : UTC 2018-07-21 15:21:49
Writing application                      : mkvmerge v7.6.0 ('Garden of Dreams') 32bit built on Feb 11 2015 00:18:47
Writing library                          : libebml v1.3.1 + libmatroska v1.4.2
Cover                                    : Yes
Attachments                              : cover.jpg

Video
ID                                       : 1
Format                                   : AVC
Format/Info                              : Advanced Video Codec
Format profile                           : High@L4.1
Format settings, CABAC                   : Yes
Format settings, ReFrames                : 3 frames
Format settings, GOP                     : M=3, N=33
Codec ID                                 : V_MPEG4/ISO/AVC
Duration                                 : 1 h 29 min
Bit rate mode                            : Constant
Bit rate                                 : 7 051 kb/s
Width                                    : 1 920 pixels
Height                                   : 1 080 pixels
Display aspect ratio                     : 16:9
Frame rate mode                          : Constant
Frame rate                               : 25.000 FPS
Standard                                 : PAL
Color space                              : YUV
Chroma subsampling                       : 4:2:0
Bit depth                                : 8 bits
Scan type                                : Progressive
Bits/(Pixel*Frame)                       : 0.136
Stream size                              : 4.33 GiB (95%)
Default                                  : Yes
Forced                                   : No
Color range                              : Limited
Color primaries                          : BT.709
Transfer characteristics                 : BT.709
Matrix coefficients                      : BT.709

Audio
ID                                       : 2
Format                                   : AC-3
Format/Info                              : Audio Coding 3
Mode extension                           : CM (complete main)
Format settings, Endianness              : Big
Codec ID                                 : A_AC3
Duration                                 : 1 h 29 min
Bit rate mode                            : Constant
Bit rate                                 : 192 kb/s
Channel(s)                               : 2 channels
Channel positions                        : Front: L R
Sampling rate                            : 48.0 kHz
Frame rate                               : 31.250 FPS (1536 spf)
Compression mode                         : Lossy
Stream size                              : 124 MiB (3%)
Default                                  : Yes
Forced                                   : No



Скриншоты:
[+] Всего файлов в раздаче - 1:
Neozhidannyj Zadornov.2018.HDTV 1080p.by.White Smoke.R.G.Generalfilm.mkv4.54 GB

Текущая раздача:
ДатаКомментарии    РазмерПиры
2018-07-22 U Неожиданный Задорнов (2018) HDTV 1080p от Generalfilm 4.54 GB ↑ 58 ↓ 14

Похожие раздачи по запросу - неожиданный:
2018-07-22 U Неожиданный Задорнов (2018) HDTVRip от Files-x 1.37 GB ↑ 53 ↓ 14
2018-07-21 U Неожиданный Задорнов (2018) SATRip 1.22 GB ↑ 88 ↓ 39

Отзывы
Зарегистрируйтесь чтобы добавить комментарий.
Обратная связь
Copyleft ©