↑↓Torrent.by
Поиск
Логин: Регистрация
Пароль: Восстановить пароль
Загрузка...

Робин Уильямс: Загляни в мою душу / Robin Williams: Come Inside My Mind (2018) WEB-DL 1080p | P2

Скачать robin-uilyams-zaglyani-v-moyu-dushu-williams-come-inside-my-mind-2018-web-dl-1080p-p2.torrent
U Магнитная ссылка Размер: 5.86 GB Раздают: 28 Качают: 6 Добавлен: 2018-07-22 08:19:08
Робин Уильямс: Загляни в мою душу / Robin Williams: Come Inside My Mind (2018) WEB-DL 1080p | P2

Название: Робин Уильямс: Загляни в мою душу
Оригинальное название: Robin Williams: Come Inside My Mind
Год выхода: 2018
Жанр: Документальный, кинематограф, биография
Режиссер: Марина Зинович
В ролях: Робин Уильямс, Билли Кристал, Пэм Доубер, Вупи Голдберг, Бобкэт Голдтуэйт, Эрик Айдл, Дэвид Леттерман, Стив Мартин, Дэвид Стейнберг, Валери Веларди

О фильме:
Трогательный и глубокий документальный портрет одного из самых обожаемых комиков в мире. Используя богатый архив, который до этого никто никогда не видел, авторы фильма рассказывают о необыкновенной жизни и карьере Робина Уильямса. Зритель увидит, какой путь прошел комик: выступления в клубах, успех сериала «Морк и Минди», проблемы с алкоголем и наркотиками, смерть близкого друга, общемировая известность, премия «Оскар» и тяжелая депрессия. Лишь близкие знали, какая боль скрывалась за той маской, которую Уильямс надевал во время выступлений или на съемочной площадке. Продюсером «Загляни в мою душу» стал лауреат премии «Оскар» Алекс Гибни.

Страна: США
Продолжительность: 01:56:34
Перевод: Профессиональный двухголосый (SDI media)

Файл
Кодек: x264
Качество: WEB-DL 1080p
Видео: MPEG-4 AVC, 6028 Kбит/с, 1920x1080
Звук #1: AC3, 6 ch, 384 Кбит/с | Русский
Звук #2: EAC3, 6 ch, 640 Кбит/с | Английский
Субтитры: Английские


[+] Инфо-файл
Формат                                   : Matroska
Версия формата                           : Version 2
Размер файла                             : 5,86 Гбайт
Продолжительность                        : 1 ч. 56 м.
Общий поток                              : 7195 Кбит/сек
Название фильма                          : Robin.Williams.Come.Inside.My.Mind.2018.1080p.AMZN.WEB-DL.by.zzZGVvv
Дата кодирования                         : UTC 2018-07-21 06:19:27
Программа кодирования                    : mkvmerge v5.8.0 ('No Sleep / Pillow') built on Sep  2 2012 15:37:04
Библиотека кодирования                   : libebml v1.2.3 + libmatroska v1.3.0
Attachements                             : cover.jpg

Видео
Идентификатор                            : 1
Формат                                   : AVC
Формат/Информация                        : Advanced Video Codec
Профиль формата                          : High@L4
Параметр CABAC формата                   : Да
Параметр ReFrames формата                : 4 кадра
Идентификатор кодека                     : V_MPEG4/ISO/AVC
Продолжительность                        : 1 ч. 56 м.
Битрейт                                  : 6028 Кбит/сек
Ширина                                   : 1920 пикселей
Высота                                   : 1080 пикселей
Соотношение сторон                       : 16:9
Режим частоты кадров                     : Постоянный
Частота кадров                           : 23,976 кадра/сек
Цветовое пространство                    : YUV
Субдискретизация насыщенности            : 4:2:0
Битовая глубина                          : 8 бит
Тип развёртки                            : Прогрессивная
Бит/(Пиксели*Кадры)                      : 0.121
Размер потока                            : 4,91 Гбайт (84%)
Заголовок                                : Robin.Williams.Come.Inside.My.Mind.2018.1080p.AMZN.WEB-DL
Язык                                     : English
Default                                  : Да
Forced                                   : Нет
Цветовой диапазон                        : Limited
Основные цвета                           : BT.709
Характеристики трансфера                 : BT.709
Коэффициенты матрицы                     : BT.709

Аудио #1
Идентификатор                            : 2
Формат                                   : AC-3
Формат/Информация                        : Audio Coding 3
Расширение режима                        : CM (complete main)
Параметр Endianness формата              : Big
Идентификатор кодека                     : A_AC3
Продолжительность                        : 1 ч. 56 м.
Вид битрейта                             : Постоянный
Битрейт                                  : 384 Кбит/сек
Каналы                                   : 6 каналов
Расположение каналов                     : Front: L C R, Side: L R, LFE
Частота                                  : 48,0 КГц
Метод сжатия                             : С потерями
Размер потока                            : 320 Мбайт (5%)
Заголовок                                : DVO (SDI media)
Язык                                     : Russian
Default                                  : Да
Forced                                   : Нет

Аудио #2
Идентификатор                            : 3
Формат                                   : E-AC-3
Формат/Информация                        : Audio Coding 3
Параметр Endianness формата              : Big
Идентификатор кодека                     : A_EAC3
Продолжительность                        : 1 ч. 56 м.
Вид битрейта                             : Постоянный
Битрейт                                  : 640 Кбит/сек
Каналы                                   : 6 каналов
Расположение каналов                     : Front: L C R, Side: L R, LFE
Частота                                  : 48,0 КГц
Метод сжатия                             : С потерями
Задержка видео                           : 1 мс.
Размер потока                            : 534 Мбайт (9%)
Язык                                     : English
Default                                  : Нет
Forced                                   : Нет

Текст #1
Идентификатор                            : 4
Формат                                   : UTF-8
Идентификатор кодека                     : S_TEXT/UTF8
Идентификатор кодека/Информация          : UTF-8 Plain Text
Язык                                     : English
Default                                  : Нет
Forced                                   : Нет

Текст #2
Идентификатор                            : 5
Формат                                   : UTF-8
Идентификатор кодека                     : S_TEXT/UTF8
Идентификатор кодека/Информация          : UTF-8 Plain Text
Заголовок                                : SDH
Язык                                     : English
Default                                  : Нет
Forced                                   : Нет




Скриншоты:
[+] Всего файлов в раздаче - 1:
Robin.Williams.Come.Inside.My.Mind.2018.1080p.AMZN.WEB-DL.by.zzZGVvv.mkv5.86 GB

Текущая раздача:
ДатаКомментарии    РазмерПиры
2018-07-22 U Робин Уильямс: Загляни в мою душу / Robin Williams: Come Inside My Mind (2018) WEB-DL 1080p | P2 2 К 5.86 GB ↑ 28 ↓ 6

Показать еще раздачи по запросу робин:
2018-10-19 U Робин Дрик, Кэмерон Стаут - Строим доверие по методикам спецслужб (2018) FB2 1К3.44 MB ↑ 44 ↓ 4
2018-08-19 U Робин Гуд / Robin Hood (2010) BDRip-HEVC 1080p от Cthulhu | D, A | Directors Cut 8.78 GB ↑ 49 ↓ 32
2018-07-21 U Робин Уильямс: Загляни в мою душу / Robin Williams: Come Inside My Mind (2018) DVBRip от R.G.Resident | P2 1.46 GB ↑ 35 ↓ 9
2018-05-28 U Стрелы Робин Гуда (1975) DVDRip-AVC от KORSAR | Режиссёрская версия 2.00 GB ↑ 27 ↓ 30
2018-02-17 U Прощай, Кристофер Робин / Goodbye Christopher Robin (2017) BDRip 720p | Лицензия 7.85 GB ↑ 62 ↓ 31
2018-02-17 U Прощай, Кристофер Робин / Goodbye Christopher Robin (2017) BDRip-AVC от OlLanDGroup | Лицензия 2.37 GB ↑ 47 ↓ 18
2018-02-17 U Прощай, Кристофер Робин / Goodbye Christopher Robin (2017) BDRip 1080p | Лицензия 13.33 GB ↑ 46 ↓ 44

Отзывы
krolikoFF13
Подтверждаю, присутствует нарастающий рассинхрон. В начале всё путём, а к концу фильма звук сильно опережает видео. Поставил заочно 10, а видимо зря. user7447 по возможности поправьте и перезалейте.

alest3r
Что то не то со звуком похоже на рассинхрон дубляжа и оригинальной дорожки...

Зарегистрируйтесь чтобы добавить комментарий.
Обратная связь
Copyleft ©