↑↓Torrent.by
Поиск
Логин: Регистрация
Пароль: Восстановить пароль
Загрузка...

Бокс. Всемирная боксерская суперсерия. Финал. Александр Усик - Мурат Гассиев [21.07] (2018) HDTVRip 720p

Скачать boks-vsemirnaya-bokserskaya-superseriya-final-aleksandr-usik-murat-gassiev-21-07-2018-hdtvrip-720p.torrent
U Магнитная ссылка Размер: 2.10 GB Раздают: 130 Качают: 84 Добавлен: 2018-07-22 16:47:08
Бокс. Всемирная боксерская суперсерия. Финал. Александр Усик - Мурат Гассиев [21.07] (2018) HDTVRip 720p

Год выхода: 21.07.2018
Вид спорта: Бокс
Язык комментариев: русский / украинский*  
Комментаторы боя: Владимир Кобельков, Вячеслав Поночовный

Описание:  21 июля 2018 года, 00:00 (МСК)
В субботу, 21 июля, в 21:20 в программе "Большой бокс" на телеканале "Интер" смотрите прямую трансляцию решающего поединка Всемирной боксерской суперсерии (WBSS).
В финале встретятся чемпион мира по версиям WBO и WBC Александр Усик и обладатель поясов IBF и WBA Мурат Гассиев. На кону поединка - чемпионские титулы WBA, WBC, WBO, IBF, пояс журнала The Ring и кубок Мохаммеда Али.
Сам бой за звание абсолютного чемпиона мира пройдет в Москве на арене СК "Олимпийский".(c)
* -  комментирование боя двуязычное
Внимание: Присутствует аудио  реклама от комментатора матча телеканала "Интер"

Формат: MKV
Качество: HDTVRip 720p
Продолжительность: 01:28:32
Видео: кодек: MPEG-2 рамер кадра: 1280 x 720 битрейт: 3000 кб/с
Звук: AC3 битрейт: 192 кб/с
[+] МИ
General
Unique ID : 203119630007740277482992123261677729132 (0x98CF6AF32312F1B5152B9293E31BF56C)
Complete name : D:TorrentsSPORTBoxing.2018.07.21.Oleksandr.Usyk.vs.Murat.Gassiev.720p.HDTVRip.Ukr.Eng.mkv
Format : Matroska
Format version : Version 4 / Version 2
File size : 2.10 GiB
Duration : 1 h 28 min
Overall bit rate : 3 403 kb/s
Encoded date : UTC 2018-07-22 07:46:26
Writing application : mkvmerge v24.0.0 ('Beyond The Pale') 64-bit
Writing library : libebml v1.3.6 + libmatroska v1.4.9

Video
ID : 1
Format : AVC
Format/Info : Advanced Video Codec
Format profile : High@L4.1
Format settings : CABAC / 5 Ref Frames
Format settings, CABAC : Yes
Format settings, ReFrames : 5 frames
Codec ID : V_MPEG4/ISO/AVC
Duration : 1 h 28 min
Bit rate : 3 016 kb/s
Width : 1 280 pixels
Height : 720 pixels
Display aspect ratio : 16:9
Frame rate mode : Constant
Frame rate : 50.000 FPS
Color space : YUV
Chroma subsampling : 4:2:0
Bit depth : 8 bits
Scan type : Progressive
Bits/(Pixel*Frame) : 0.065
Stream size : 1.86 GiB (89%)
Writing library : x264 core 155 r2901 7d0ff22
Encoding settings : cabac=1 / ref=5 / deblock=1:0:0 / analyse=0x3:0x113 / me=hex / subme=8 / psy=1 / psy_rd=1.00:0.00 / mixed_ref=1 / me_range=16 / chroma_me=1 / trellis=2 / 8x8dct=1 / cqm=0 / deadzone=21,11 / fast_pskip=1 / chroma_qp_offset=-2 / threads=12 / lookahead_threads=2 / sliced_threads=0 / nr=0 / decimate=1 / interlaced=0 / bluray_compat=0 / constrained_intra=0 / bframes=3 / b_pyramid=2 / b_adapt=1 / b_bias=0 / direct=3 / weightb=1 / open_gop=0 / weightp=2 / keyint=250 / keyint_min=25 / scenecut=40 / intra_refresh=0 / rc_lookahead=50 / rc=crf / mbtree=1 / crf=23.0 / qcomp=0.60 / qpmin=0 / qpmax=69 / qpstep=4 / ip_ratio=1.40 / aq=1:1.00
Language : English
Default : Yes
Forced : No
Color range : Limited
Matrix coefficients : BT.709

Audio #1
ID : 2
Format : AC-3
Format/Info : Audio Coding 3
Codec ID : A_AC3
Duration : 1 h 28 min
Bit rate mode : Constant
Bit rate : 192 kb/s
Channel(s) : 2 channels
Channel positions : Front: L R
Sampling rate : 48.0 kHz
Frame rate : 31.250 FPS (1536 SPF)
Bit depth : 16 bits
Compression mode : Lossy
Delay relative to video : -20 ms
Stream size : 122 MiB (6%)
Title : Володимир Кобельков та Вячеслав Поночовний
Language : Ukrainian
Service kind : Complete Main
Default : Yes
Forced : Yes

Audio #2
ID : 3
Format : AC-3
Format/Info : Audio Coding 3
Codec ID : A_AC3
Duration : 1 h 28 min
Bit rate mode : Constant
Bit rate : 192 kb/s
Channel(s) : 2 channels
Channel positions : Front: L R
Sampling rate : 48.0 kHz
Frame rate : 31.250 FPS (1536 SPF)
Bit depth : 16 bits
Compression mode : Lossy
Delay relative to video : -20 ms
Stream size : 122 MiB (6%)
Language : English
Service kind : Complete Main
Default : No
Forced : No



Скриншоты:
[+] Всего файлов в раздаче - 1:
Boxing.2018.07.21.Oleksandr.Usyk.vs.Murat.Gassiev.720p.HDTVRip.Ukr.Eng.mkv2.10 GB

Текущая раздача:
ДатаКомментарии    РазмерПиры
2018-07-22 U Бокс. Всемирная боксерская суперсерия. Финал. Александр Усик - Мурат Гассиев [21.07] (2018) HDTVRip 720p 1 К 2.10 GB ↑ 130 ↓ 84

Показать еще раздачи по запросу бокс:
2018-09-23 U Бокс. Энтони Джошуа - Александр Поветкин [22.09] (2018) IPTV 1080i 6.15 GB ↑ 130 ↓ 54
2018-09-23 U Бокс. Энтони Джошуа - Александр Поветкин [22.09] (2018) IPTVRip 866.46 MB ↑ 156 ↓ 39
2018-07-22 U Бокс. Всемирная боксерская суперсерия. Финал. Александр Усик - Мурат Гассиев [21.07] (2018) IPTVRip 1К1.33 GB ↑ 58 ↓ 37
2018-07-22 U Бокс. Всемирная боксерская суперсерия. Финал. Александр Усик - Мурат Гассиев + Андеркард [21.07] (2018) DVBRip 3.79 GB ↑ 131 ↓ 75
2018-07-22 U Бокс. Всемирная боксерская суперсерия. Финал. Александр Усик - Мурат Гассиев + Андеркарт [21.07] (2018) IPTVRip-AVC 8.11 GB ↑ 63 ↓ 259
2018-05-14 U Бокс: Бой за титул WBA в легком весе. Хорхе Линарес - Василий Ломаченко [12.05] (2018) HDTVRip 720p 1.44 GB ↑ 168 ↓ 29
2018-04-03 U Бокс. Александр Поветкин - Дэвид Прайс [31.03] (2018) WEBRip 271.47 MB ↑ 97 ↓ 23

Отзывы
hydro.jr Оценка: 10
spasibo

Зарегистрируйтесь чтобы добавить комментарий.
Обратная связь
Copyleft ©