↑↓Torrent.by
Поиск
Логин: Регистрация
Пароль: Восстановить пароль
Загрузка...

Слуга (1988) DVDRip-AVC от KORSAR

Скачать sluga-1988-dvdrip-avc-ot-korsar.torrent
U Магнитная ссылка Размер: 2.41 GB Раздают: 43 Качают: 23 Добавлен: 2018-07-23 07:18:07
Слуга (1988) DVDRip-AVC от KORSAR

Название: Слуга
Год выпуска: 1988
Жанр:  Драма
Режиссер: Вадим Абдрашитов
В ролях: Юрий Беляев, Олег Борисов, Ирина Розанова, Алексей Петренко, Александр Терешко, Лариса Шахворостова, Ирина Чериченко, Антонина Кончакова, Валерий Новиков, Михаил Янушкевич, Вячеслав Жариков, Феликс Антипов, Павел Крайнов, Никита Астахов, Сергей Воробьёв, Борис Абрамкин, Светлана Евстратова, Александр Корженков

О фильме: Андрей Андреевич Гудионов, некий чиновник, начальник областного масштаба, случайно встречается с Павлом Клюевым, который только что демобилизовался и ищет место в жизни. Гудионову приглянулся смышлёный парень, бывший десантник, и он берёт его себе в личные водители. Подчинённый преданно служит и терпит весьма странный характер господина. Проходят годы, и хозяин облагодетельствует водителя, подарив ему дом, жену и даже назначив дирижёром хора.

Выпущено: СССР, Мосфильм
Продолжительность: 01:07:01 + 01:06:09
Перевод: Не требуется

Файл
Качество: DVDRip-AVC
Видео: MPEG-4 AVC, 716x572@763x572, 2370 Кбит/с, 25.000 Кадр/с
Аудио: AC3, 2 ch, 224 Кбит/с
Субтитры: Нет

Релиз:
[+] Награды

1989 год. КФ "Созвездие" (Приз за лучшую главную мужскую роль - Олег Борисов)
1989 год. МКФ в Западном Берлине (Премия А. Бауэра "За фильм, открывающий перспективы в развитии кино" - Вадим Абдрашитов)
1989 год. МКФ в Западном Берлине (Премия O. C. I. C. - Вадим Абдрашитов)
1989 год. МКФ в Западном Берлине (Приз экуменического жюри - Вадим Абдрашитов)
1989 год. Премия "Ника" (За лучшую мужскую роль - Олег Борисов)
1989 год. Премия "Ника" (За лучший сценарий - Александр Миндадзе)
1991 год. Государственная премия СССР: Вадим Абдрашитов, Юрий Беляев, Олег Борисов, Владимир Дашкевич, Денис Евстигнеев, Александр Миндадзе, Лилия Тереховская, Александр Толкачев



[+] MediaInfo
Общее
Уникальный идентификатор                 : 218615913179532640262833726992554478613 (0xA477E4B2AA15534D8E369A4F3B354C15)
Полное имя                               : Слуга.1988.DVDRip-AVC.KORSAR.mkv
Формат                                   : Matroska
Версия формата                           : Version 2
Размер файла                             : 1,22 Гбайт
Продолжительность                        : 1 ч. 7 м.
Общий поток                              : 2596 Кбит/сек
Дата кодирования                         : UTC 2015-05-21 21:00:34
Программа кодирования                    : mkvmerge v5.8.0 ('No Sleep / Pillow') built on Sep  2 2012 15:37:04
Библиотека кодирования                   : libebml v1.2.3 + libmatroska v1.3.0

Видео
Идентификатор                            : 1
Формат                                   : AVC
Формат/Информация                        : Advanced Video Codec
Профиль формата                          : High@L4.1
Параметр CABAC формата                   : Да
Параметр RefFrames формата               : 15 кадров
Идентификатор кодека                     : V_MPEG4/ISO/AVC
Продолжительность                        : 1 ч. 7 м.
Битрейт                                  : 2370 Кбит/сек
Ширина                                   : 716 пикселей
Высота                                   : 572 пикселя
Соотношение сторон                       : 4:3
Соотношение сторон в оригинале           : 4:3
Режим частоты кадров                     : Постоянный
Частота кадров                           : 25,000 кадров/сек
Цветовое пространство                    : YUV
Субдискретизация насыщенности            : 4:2:0
Битовая глубина                          : 8 бит
Тип развёртки                            : Прогрессивная
Бит/(Пиксели*Кадры)                      : 0.231
Размер потока                            : 1,09 Гбайт (89%)
Библиотека кодирования                   : x264 core 146 r2538 121396c
Настройки программы                      : cabac=1 / ref=15 / deblock=1:-2:-2 / analyse=0x3:0x133 / me=umh / subme=10 / psy=1 / psy_rd=1.05:0.10 / mixed_ref=1 / me_range=32 / chroma_me=1 / trellis=2 / 8x8dct=1 / cqm=0 / deadzone=21,11 / fast_pskip=0 / chroma_qp_offset=-3 / threads=12 / lookahead_threads=2 / sliced_threads=0 / nr=0 / decimate=0 / interlaced=0 / bluray_compat=0 / constrained_intra=0 / bframes=8 / b_pyramid=2 / b_adapt=2 / b_bias=0 / direct=3 / weightb=1 / open_gop=0 / weightp=2 / keyint=250 / keyint_min=25 / scenecut=40 / intra_refresh=0 / rc=2pass / mbtree=0 / bitrate=2370 / ratetol=1.0 / qcomp=0.65 / qpmin=0 / qpmax=39 / qpstep=4 / cplxblur=20.0 / qblur=0.5 / ip_ratio=1.40 / pb_ratio=1.30 / aq=1:0.90
Язык                                     : English
Default                                  : Да
Forced                                   : Нет
Цветовой диапазон                        : Limited
Основные цвета                           : BT.601 PAL
Характеристики трансфера                 : BT.470 System B, BT.470 System G
Коэффициенты матрицы                     : BT.601

Аудио
Идентификатор                            : 2
Формат                                   : AC-3
Формат/Информация                        : Audio Coding 3
Параметр Endianness формата              : Big
Идентификатор кодека                     : A_AC3
Продолжительность                        : 1 ч. 7 м.
Вид битрейта                             : Постоянный
Битрейт                                  : 224 Кбит/сек
Каналы                                   : 2 канала
Расположение каналов                     : Front: L R
Частота                                  : 48,0 КГц
Частота кадров                           : 31,250 кадров/сек (1536 SPF)
Битовая глубина                          : 16 бит
Метод сжатия                             : С потерями
Размер потока                            : 107 Мбайт (9%)
Язык                                     : Russian
Default                                  : Да
Forced                                   : Нет



Скриншоты:
[+] Всего файлов в раздаче - 2:
Слуга-1.mkv1.22 GB
Слуга-2.mkv1.20 GB

Текущая раздача:
ДатаКомментарии    РазмерПиры
2018-07-23 U Слуга (1988) DVDRip-AVC от KORSAR 2.41 GB ↑ 43 ↓ 23

Показать еще раздачи по запросу слуга:
2017-11-17 U Слуга народа [S02] (2017) WEB-DLRip от Files-x 8.26 GB ↑ 139 ↓ 92
2017-11-17 U Слуга народа [S02] (2017) WEB-DLRip-AVC от Files-x 1К8.57 GB ↑ 106 ↓ 91
2017-11-17 U Слуга народа [S02] (2017) WEB-DLRip от GeneralFilm 6К4.35 GB ↑ 101 ↓ 217
2017-11-16 U Слуга народа [02х01-23 из 24] (2017) WEB-DLRip от GeneralFilm 4.14 GB ↑ 49 ↓ 127
2017-11-15 U Слуга народа [02х01-22 из 24] (2017) WEB-DLRip от GeneralFilm 3.96 GB ↑ 39 ↓ 81
2017-11-14 U Слуга народа [02х01-21 из 24] (2017) WEB-DLRip от GeneralFilm 3.78 GB ↑ 22 ↓ 102
2017-11-09 U Слуга народа [02х01-20 из 24] (2017) WEB-DLRip от GeneralFilm 3.60 GB ↑ 185 ↓ 431

Отзывы
Зарегистрируйтесь чтобы добавить комментарий.
Обратная связь
Copyleft ©