↑↓Torrent.by
Поиск
Логин: Регистрация
Пароль: Восстановить пароль
Загрузка...

Генезис 2.0 / Genesis 2.0 (2018) WEB-DLRip | P1

Скачать genezis-2-0-genesis-2018-web-dlrip-p1.torrent
U Магнитная ссылка Размер: 1.46 GB Раздают: 328 Качают: 73 Добавлен: 2018-07-24 20:06:14
Генезис 2.0 / Genesis 2.0 (2018) WEB-DLRip | P1

Генезис 2.0 / Genesis 2.0

Страна: Швейцария  Китай  Россия  Южная Корея  США
Производство: Christian Frei Filmproductions
Год выпуска: 2018
Жанр:  документальный
Продолжительность: 01:53:11

Режиссеры: Кристиан Фрай, Максим Арбугаев
Автор сценария и продюсер: Кристиан Фрай

Описание: На далёких островах северных широт, в условиях вечной мерзлоты охотники за трофеями заняты поисками бесценных сокровищ «чёрного» рынка — бивней доисторических мамонтов. Одна из таких экспедиций обнаруживает прекрасно сохранившиеся останки древнего зверя. Поразительная находка вызвала интерес в биотехнологическом мире. Фрагменты животного с живыми клетками доставляют в лабораторию по клонированию в Южной Корее. Её честолюбивый глава Хван У Сок берётся возродить мамонтов к жизни и совершить революцию в науке и судьбах человечества…

Перевод: Профессиональный (одноголосый, закадровый) | студия Позитив
Субтитры: нет

Качество: WEB-DLRip
Формат: АVI
Видео кодек: XviD
Аудио кодек: АС3
Видео: 720x400 (16:9), 25.000 fps, XviD build 67 ~1 640 kbps avg
Аудио: 48.0 kHz, AC3 Dolby Digital, 2/0 (L,R) ch, ~192 kbps

Дата премьеры (мир): 20 января 2018
Дата премьеры (РФ): 12 июля 2018, «Русский Репортаж»

Семпл

Релиз от: ylnian


[+] Media Info
General
Полное имя                               : Genesis.2.0.2018.WEB-DLRip-ylnian.avi
Формат                                   : AVI
Формат/Информация                        : Audio Video Interleave
Размер файла                             : 1,46 Гбайт
Продолжительность                        : 1 ч. 53 м.
Общий поток                              : 1842 Кбит/сек
Программа кодирования                    : VirtualDubMod 1.5.10.3 | (build 2550/release)
Библиотека кодирования                   : VirtualDubMod build 2550/release

Видео
Идентификатор                            : 0
Формат                                   : MPEG-4 Visual
Профиль формата                          : Advanced Simple@L5
Настройки формата                        : BVOP1
Параметр BVOP формата                    : 1
Параметр QPel формата                    : Нет
Параметр GMC формата                     : Без точки перехода
Параметр матрицы формата                 : Default (MPEG)
Идентификатор кодека                     : XVID
Идентификатор кодека/Подсказка           : XviD
Продолжительность                        : 1 ч. 53 м.
Битрейт                                  : 1640 Кбит/сек
Ширина                                   : 720 пикселей
Высота                                   : 400 пикселей
Соотношение сторон                       : 16:9
Частота кадров                           : 25,000 кадров/сек
Цветовое пространство                    : YUV
Субдискретизация насыщенности            : 4:2:0
Битовая глубина                          : 8 бит
Тип развёртки                            : Прогрессивная
Метод сжатия                             : С потерями
Бит/(Пиксели*Кадры)                      : 0.228
Размер потока                            : 1,30 Гбайт (89%)
Библиотека кодирования                   : XviD 67

Аудио
Идентификатор                            : 1
Формат                                   : AC-3
Формат/Информация                        : Audio Coding 3
Идентификатор кодека                     : 2000
Продолжительность                        : 1 ч. 53 м.
Вид битрейта                             : Постоянный
Битрейт                                  : 192 Кбит/сек
Каналы                                   : 2 канала
Расположение каналов                     : Front: L R
Частота                                  : 48,0 КГц
Частота кадров                           : 31,250 кадров/сек (1536 SPF)
Битовая глубина                          : 16 бит
Метод сжатия                             : С потерями
Размер потока                            : 155 Мбайт (10%)
Выравнивание                             : Разделение по промежуткам
Продолжительность промежутка             : 40  мс. (1,00 видеокадр)
Время предзагрузки промежутка            : 500  мс.



Скриншоты:
[+] Всего файлов в раздаче - 1:
Genesis.2.0.2018.WEB-DLRip-ylnian.avi1.46 GB

Текущая раздача:
ДатаКомментарии    РазмерПиры
2018-07-24 U Генезис 2.0 / Genesis 2.0 (2018) WEB-DLRip | P1 1.46 GB ↑ 328 ↓ 73

Показать еще раздачи по запросу генезис:
2018-07-24 U Генезис 2.0 / Genesis 2.0 (2018) WEB-DL 1080р | P1 2К3.75 GB ↑ 419 ↓ 132
2018-04-28 U Генезис / Genesis (2018) WEBRip 720p | L2 2.28 GB ↑ 92 ↓ 99
2018-04-28 U Генезис / Genesis (2018) WEBRip | L2 1.50 GB ↑ 137 ↓ 92
2017-07-24 U Терминатор: Генезис / Terminator Genisys (2015) BDRip-HEVC 1080p от ХиМиК | D 3.66 GB ↑ 64 ↓ 33
2016-03-30 U Терминатор: Генезис / Terminator Genisys (2015) BDRip | Смешной перевод 1К1.46 GB ↑ 87 ↓ 13680
2016-01-17 U Терминатор: Генезис / Terminator: Genisys (2015) HDRip | P, A 2.19 GB ↑ 349 ↓ 15
2015-10-21 U Терминатор: Генезис / Terminator: Genisys (2015) BDRip-AVC | Лицензия 2.25 GB ↑ 214 ↓ 13810

Отзывы
Зарегистрируйтесь чтобы добавить комментарий.
Обратная связь
Copyleft ©