↑↓Torrent.by
Поиск
Логин: Регистрация
Пароль: Восстановить пароль
Загрузка...

Я счастлив (2018) WEB-DL 1080p

Скачать ya-schastliv-2018-web-dl-1080p.torrent
U Магнитная ссылка Размер: 2.93 GB Раздают: 234 Качают: 92 Добавлен: 2018-07-24 20:06:18
Я счастлив (2018) WEB-DL 1080p

Название: Я счастлив
Год выхода: 2018
Жанр: Драма
Режиссер: Евгений Дакот
В ролях: Евгений Дакот, Наталья Анисимова, Александра Верхошанская, Владимир Селезнёв

О фильме: Однажды, проснувшись в парке на траве, ты услышишь слово «Привет!» от незнакомки, и твоя жизнь перевернется. Блестящее будущее пианиста покажется скучным, умная заботливая девушка — слишком правильной. А девизом новой жизни станет «К черту запреты!».

Страна: Россия
Студия: Dakot Vision
Продолжительность: 01:18:57
Перевод: Не требуется

Файл
Кодек: MPEG-4 AVC
Качество: WEB-DL 1080p
Видео: 1920x824, 5113kb/s, 24.000fps
Звук: 192kb/s, 2ch, 48000kHz, AC3 [RUS] | Русский язык
Субтитры: Отсутствуют

РЕКЛАМА ОТСУТСТВУЕТ


[+] MI

Формат                                   : Matroska
Версия формата                           : Version 4 / Version 2
Размер файла                             : 2,93 Гбайт
Продолжительность                        : 1 ч. 18 м.
Общий поток                              : 5306 Кбит/сек
Название фильма                          : Ya.schastliv.2018.WEB-DL.(1080p).Getty
Дата кодирования                         : UTC 2018-07-18 11:31:05
Программа кодирования                    : mkvmerge v7.8.0 ('River Man') 32bit built on Mar 27 2015 16:18:02
Библиотека кодирования                   : libebml v1.3.1 + libmatroska v1.4.2

Видео
Идентификатор                            : 1
Формат                                   : AVC
Формат/Информация                        : Advanced Video Codec
Профиль формата                          : High@L4
Настройки формата                        : CABAC / 4 Ref Frames
Параметр CABAC формата                   : Да
Параметр RefFrames формата               : 4 кадра
Идентификатор кодека                     : V_MPEG4/ISO/AVC
Продолжительность                        : 1 ч. 18 м.
Битрейт                                  : 5113 Кбит/сек
Ширина                                   : 1920 пикселей
Высота                                   : 824 пикселя
Соотношение сторон                       : 2,35:1
Режим частоты кадров                     : Постоянный
Частота кадров                           : 24,000 кадра/сек
Цветовое пространство                    : YUV
Субдискретизация насыщенности            : 4:2:0
Битовая глубина                          : 8 бит
Тип развёртки                            : Прогрессивная
Бит/(Пиксели*Кадры)                      : 0.135
Размер потока                            : 2,82 Гбайт (96%)
Default                                  : Да
Forced                                   : Нет

Аудио
Идентификатор                            : 2
Формат                                   : AC-3
Формат/Информация                        : Audio Coding 3
Идентификатор кодека                     : A_AC3
Продолжительность                        : 1 ч. 18 м.
Вид битрейта                             : Постоянный
Битрейт                                  : 192 Кбит/сек
Каналы                                   : 2 канала
Расположение каналов                     : Front: L R
Частота                                  : 48,0 КГц
Частота кадров                           : 31,250 кадров/сек (1536 SPF)
Битовая глубина                          : 16 бит
Метод сжатия                             : С потерями
Размер потока                            : 108 Мбайт (4%)
Default                                  : Да
Forced                                   : Нет



Скриншоты:
[+] Всего файлов в раздаче - 1:
Ya.schastliv.2018.WEB-DL.(1080p).Getty.mkv2.93 GB

Текущая раздача:
ДатаКомментарии    РазмерПиры
2018-07-24 U Я счастлив (2018) WEB-DL 1080p 1 К 2.93 GB ↑ 234 ↓ 92

Похожие раздачи по запросу - счастлив:
2018-07-23 U Я счастлив (2018) WEB-DLRip-AVC от Files-x 1.37 GB ↑ 79 ↓ 29
2018-07-19 U Я счастлив (2018) WEB-DLRip от GeneralFilm 744.43 MB ↑ 66 ↓ 35
2018-07-19 U Я счастлив (2018) WEB-DLRip от Files-x 1.37 GB ↑ 58 ↓ 36

Отзывы
Blackhawk
Спасибо. Вещь очень самодеятельная. Режиссер Женя играл в массе эпизодов в кино и мграл в театре и окончил Ярославский Государственный Театральный Институт Фильм стерла.

Зарегистрируйтесь чтобы добавить комментарий.
Обратная связь
Copyleft ©