↑↓Torrent.by
Поиск
Логин: Регистрация
Пароль: Восстановить пароль
Загрузка...

Михаил Задорнов. Легко жить трудно (2018) HDTVRip

Скачать mihail-zadornov-legko-zhit-trudno-2018-hdtvrip.torrent
U Магнитная ссылка Размер: 749.18 MB Раздают: 121 Качают: 17 Добавлен: 2018-07-25 05:49:20
Михаил Задорнов. Легко жить трудно (2018) HDTVRip

Михаил Задорнов. Легко жить трудно

Страна: Россия
Телеканал: Первый канал
Производство: Первый канал, Студия ГАЛАКОН
Год выпуска: 2018
Жанр:  документальный, биография
Продолжительность: 00:49:54

Режиссер: Вера Травкина
В фильме принимали участие: Елена Бомбина, Людмила Задорнова, Алексей Задорнов, Брендон Стоун, Максим Галкин, Лион Измайлов, Андрей Дементьев, Евгений Петросян, Алексей Кортнев, Сергей Безруков, Дмитрий Панченко, Виталий Сундаков, Вита Бреде, Наталья Завгородняя, Елена Бойко, Николай Преображенский, Светлана Столярова

Описание: В нашей стране нет человека, который не знал бы Михаила Задорнова. Мы цитируем его остроумные фразы и шутки, даже не задумываясь, кто их автор. Его юмор был феноменально актуальным: то, что утром обсуждали в новостях, вечером Задорнов выносил к зрителям. Казалось, нам известно всё о его творчестве, гастролях, фильмах и личной жизни. Но на самом деле Задорнов был загадкой. Он никогда не посвящал широкую публику в подробности своей жизни: как проводил свободное время, с кем дружил, о чем мечтал и кого любил. Этот фильм даст нам ответы на многие загадки из жизни великого сатирика...

Качество: HDTVRip
Формат: AVI
Видео кодек: XviD
Аудио кодек: АС3
Видео: 720x400 (16:9), 25.000 fps, XviD build 67 ~1 897 kbps avg
Аудио: 48.0 kHz, AC3 Dolby Digital, 2/0 (L,R) ch, ~192 kbps

Релиз от: ylnian
[+] Media Info
General
Полное имя                               : Задорнов_Легко.жить.трудно.2018.HDTVRip-ylnian.avi
Формат                                   : AVI
Формат/Информация                        : Audio Video Interleave
Размер файла                             : 749 Мбайт
Продолжительность                        : 49 м. 54 с.
Общий поток                              : 2098 Кбит/сек
Программа кодирования                    : VirtualDubMod 1.5.10.3 | (build 2550/release)
Библиотека кодирования                   : VirtualDubMod build 2550/release

Видео
Идентификатор                            : 0
Формат                                   : MPEG-4 Visual
Профиль формата                          : Advanced Simple@L5
Настройки формата                        : BVOP1
Параметр BVOP формата                    : 1
Параметр QPel формата                    : Нет
Параметр GMC формата                     : Без точки перехода
Параметр матрицы формата                 : Default (MPEG)
Идентификатор кодека                     : XVID
Идентификатор кодека/Подсказка           : XviD
Продолжительность                        : 49 м. 54 с.
Битрейт                                  : 1897 Кбит/сек
Ширина                                   : 720 пикселей
Высота                                   : 400 пикселей
Соотношение сторон                       : 16:9
Частота кадров                           : 25,000 кадров/сек
Цветовое пространство                    : YUV
Субдискретизация насыщенности            : 4:2:0
Битовая глубина                          : 8 бит
Тип развёртки                            : Прогрессивная
Метод сжатия                             : С потерями
Бит/(Пиксели*Кадры)                      : 0.263
Размер потока                            : 677 Мбайт (90%)
Библиотека кодирования                   : XviD 67

Аудио
Идентификатор                            : 1
Формат                                   : AC-3
Формат/Информация                        : Audio Coding 3
Идентификатор кодека                     : 2000
Продолжительность                        : 49 м. 54 с.
Вид битрейта                             : Постоянный
Битрейт                                  : 192 Кбит/сек
Каналы                                   : 2 канала
Расположение каналов                     : Front: L R
Частота                                  : 48,0 КГц
Частота кадров                           : 31,250 кадров/сек (1536 SPF)
Битовая глубина                          : 16 бит
Метод сжатия                             : С потерями
Размер потока                            : 68,5 Мбайт (9%)
Выравнивание                             : Разделение по промежуткам
Продолжительность промежутка             : 40  мс. (1,00 видеокадр)
Время предзагрузки промежутка            : 500  мс.



Скриншоты:
[+] Всего файлов в раздаче - 1:
Задорнов_Легко.жить.трудно.2018.HDTVRip-ylnian.avi749.18 MB

Текущая раздача:
ДатаКомментарии    РазмерПиры
2018-07-25 U Михаил Задорнов. Легко жить трудно (2018) HDTVRip 749.18 MB ↑ 121 ↓ 17

Показать еще раздачи по запросу михаил:
2018-09-11 U Михаил Баковец - S-T-I-K-S. Игра в кошки-мышки (2018) МР3 319.89 MB ↑ 189 ↓ 27
2018-08-26 U Михаил Гулько - Синее небо России (1995) MP3 175.15 MB ↑ 63 ↓ 96
2018-08-19 U Михаил Атаманов - Искажающие реальность [Книга 2] (2018) MP3 287.07 MB ↑ 54 ↓ 6
2018-08-09 U Михаил Петров - Как отдыхает Путин (2018) FB2 1.72 MB ↑ 50 ↓ 1
2018-07-19 U Михаил Пуговкин. Боже, какой типаж! (2018) HDTV 1080p от GeneralFilm 1.67 GB ↑ 40 ↓ 78
2018-07-06 U Михаил Лысов - Дом мечты. Как его построить и не наломать дров (2018) FB2, RTF 10.53 MB ↑ 238 ↓ 42
2018-06-20 U Михаил Дорохов - S-T-I-K-S. Быстрее судьбы (2018) МР3 428.41 MB ↑ 175 ↓ 10

Отзывы
Зарегистрируйтесь чтобы добавить комментарий.
Обратная связь
Copyleft ©