↑↓Torrent.by
Поиск
Логин: Регистрация
Пароль: Восстановить пароль
Загрузка...

Озеро героев (2017) WEB-DL 1080p

Скачать ozero-geroev-2017-web-dl-1080p.torrent
U Магнитная ссылка Размер: 2.07 GB Раздают: 104 Качают: 6 Добавлен: 2018-07-25 05:51:19
Озеро героев (2017) WEB-DL 1080p

Название: Озеро героев
Год выхода: 2017
Жанр: Комедия, приключения
Режиссер: Анна Протоковило
В ролях: Любава Яровая, Александр Чусовитин, Никита Бурячек, Олег Майборода, Нелли Гатина, Никита Краснояров, Дмитрий Востриков, Николай Кулебякин, Вадим Карионов, Олег Тупица

О фильме: Члены молодежной организации «Экологи Сибири» узнают, что на озере Байкал, в заповедном месте планируется строительство крупного отеля. Лидер экологов Егор призывает любой ценой помешать этим планам и встать на защиту природы. Ребята едут на Байкал и разбивают палаточный лагерь прямо на месте строительства. Начинается противостояние юных экологов и строительной корпорации, обе стороны настроены решительно. Ситуация накаляется еще более, когда выясняется, что подруга Егора — дочь директора строительной корпорации. Строителям нужно начинать работы, и они решаются на крайние меры…

Страна: Россия
Студия: Студия игрового кино "Краски"
Продолжительность: 01:10:52
Перевод: Не требуется

Файл
Кодек: MPEG-4 AVC
Качество: WEB-DL 1080p
Видео: 1920x856, 3993kb/s, 25.000fps
Звук: 192kb/s, 2ch, 48000kHz, AC3 [RUS] | Русский язык
Субтитры: Отсутствуют

РЕКЛАМА ОТСУТСТВУЕТ


[+] MI

Формат                                   : Matroska
Версия формата                           : Version 4 / Version 2
Размер файла                             : 2,07 Гбайт
Продолжительность                        : 1 ч. 10 м.
Общий поток                              : 4187 Кбит/сек
Название фильма                          : Ozero.geroev.2017.WEB-DL.(1080p).Getty
Дата кодирования                         : UTC 2018-07-06 14:17:14
Программа кодирования                    : mkvmerge v7.8.0 ('River Man') 32bit built on Mar 27 2015 16:18:02
Библиотека кодирования                   : libebml v1.3.1 + libmatroska v1.4.2

Видео
Идентификатор                            : 1
Формат                                   : AVC
Формат/Информация                        : Advanced Video Codec
Профиль формата                          : High@L4
Настройки формата                        : CABAC / 3 Ref Frames
Параметр CABAC формата                   : Да
Параметр RefFrames формата               : 3 кадра
Идентификатор кодека                     : V_MPEG4/ISO/AVC
Продолжительность                        : 1 ч. 10 м.
Битрейт                                  : 3993 Кбит/сек
Ширина                                   : 1920 пикселей
Высота                                   : 856 пикселей
Соотношение сторон                       : 2,25:1
Режим частоты кадров                     : Постоянный
Частота кадров                           : 25,000 кадров/сек
Цветовое пространство                    : YUV
Субдискретизация насыщенности            : 4:2:0
Битовая глубина                          : 8 бит
Тип развёртки                            : Прогрессивная
Бит/(Пиксели*Кадры)                      : 0.097
Размер потока                            : 1,98 Гбайт (95%)
Default                                  : Да
Forced                                   : Нет

Аудио
Идентификатор                            : 2
Формат                                   : AC-3
Формат/Информация                        : Audio Coding 3
Идентификатор кодека                     : A_AC3
Продолжительность                        : 1 ч. 10 м.
Вид битрейта                             : Постоянный
Битрейт                                  : 192 Кбит/сек
Каналы                                   : 2 канала
Расположение каналов                     : Front: L R
Частота                                  : 48,0 КГц
Частота кадров                           : 31,250 кадров/сек (1536 SPF)
Битовая глубина                          : 16 бит
Метод сжатия                             : С потерями
Размер потока                            : 97,3 Мбайт (5%)
Default                                  : Да
Forced                                   : Нет



Скриншоты:
[+] Всего файлов в раздаче - 1:
Ozero geroev 2017 WEB-DL 1080p-LQ.mkv2.07 GB

Текущая раздача:
ДатаКомментарии    РазмерПиры
2018-07-25 U Озеро героев (2017) WEB-DL 1080p 2.07 GB ↑ 104 ↓ 6

Показать еще раздачи по запросу озеро:
2018-09-04 U Озеро страха: Наследие / Lake Placid: Legacy (2018) WEB-DLRip-AVC от ExKinoRay | iTunes 2.15 GB ↑ 56 ↓ 19
2018-09-03 U Озеро страха: Наследие / Lake Placid: Legacy (2018) WEB-DL 1080p | iTunes 3.90 GB ↑ 680 ↓ 320
2018-09-03 U Озеро страха: Наследие / Lake Placid: Legacy (2018) WEB-DLRip | iTunes 1.46 GB ↑ 940 ↓ 263
2018-07-23 U Озеро героев (2017) WEB-DLRip-AVC от Files-x 1.37 GB ↑ 99 ↓ 37
2018-07-07 U Озеро героев (2017) WEB-DLRip от GeneralFilm 743.47 MB ↑ 172 ↓ 40
2018-07-07 U Озеро героев (2017) WEB-DLRip от Files-x 912.32 MB ↑ 237 ↓ 40
2018-04-22 U Экскурсии по Абхазии: Гагра, Пицунда, Новый Афон, Сухум, озеро Рица (2011) DVDRip-AVC от KORSAR 1.15 GB ↑ 146 ↓ 41

Отзывы
Зарегистрируйтесь чтобы добавить комментарий.
Обратная связь
Copyleft ©