↑↓Torrent.by
Поиск
Логин: Регистрация
Пароль: Восстановить пароль
Загрузка...

Андрей Макаревич - Выступление в Юрмале [21.07] (2018) HDTV 1080i

Скачать andrey-makarevich-vystuplenie-v-yurmale-21-07-2018-hdtv-1080i.torrent
U Магнитная ссылка Размер: 1.37 GB Раздают: 27 Качают: 8 Добавлен: 2018-07-25 05:51:30
Андрей Макаревич  - Выступление в Юрмале [21.07] (2018) HDTV 1080i

Исполнитель/Группа: Андрей Макаревич
Жанр:  ROCK
Год выпуска: 2018
Продолжительность: 00:18:07

Описание: Выступление Андрея Макаревича в Юрмале 21 июля 2018 года.

Формат: MKV
Качество: HDTV 1080i
Видео кодек: H.264
Аудио кодек: MP2
Видео: H.264, ~10.7 Mbps, 1920x1080, (16:9), 25fps  
Аудио: MP2, 48000Hz, 2ch, 384 kbps
[+] Треклист
Андрей Макаревич, Лайма Вайкуле - Три окна
Андрей Макаревич - Либо это, либо то
Андрей Макаревич - Паузы
Андрей Макаревич - Однажды мир прогнется под нас



[+] MedaInfo
Complete name               : D:Makarevich_07.18.mkv
Format                      : Matroska
Format version              : Version 4 / Version 2
File size                   : 1.37 GiB
Duration                    : 18 min 7 s
Overall bit rate mode       : Constant
Overall bit rate            : 10.8 Mb/s
Encoded date                : UTC 2018-07-24 13:53:54
Writing application         : mkvmerge v8.3.0 ('Over the Horizon') 64bit
Writing library             : libebml v1.3.1 + libmatroska v1.4.2 / Lavf56.25.101

Video
ID                          : 1
Format                      : AVC
Format/Info                 : Advanced Video Codec
Format profile              : Main@L4
Format settings, CABAC      : Yes
Format settings, ReFrames   : 3 frames
Format settings, GOP        : M=4, N=24
Codec ID                    : V_MPEG4/ISO/AVC
Duration                    : 18 min 7 s
Bit rate mode               : Constant
Bit rate                    : 10.7 Mb/s
Width                       : 1 920 pixels
Height                      : 1 080 pixels
Display aspect ratio        : 16:9
Frame rate mode             : Variable
Frame rate                  : 46.383 FPS
Original frame rate         : 25.000 FPS
Color space                 : YUV
Chroma subsampling          : 4:2:0
Bit depth                   : 8 bits
Scan type                   : MBAFF
Scan type, store method     : Interleaved fields
Scan order                  : Top Field First
Bits/(Pixel*Frame)          : 0.111
Stream size                 : 1.32 GiB (96%)
Default                     : Yes
Forced                      : No
Color range                 : Limited
Color primaries             : BT.709
Transfer characteristics    : BT.709
Matrix coefficients         : BT.709

Audio
ID                          : 2
Format                      : MPEG Audio
Format version              : Version 1
Format profile              : Layer 2
Codec ID                    : A_MPEG/L2
Codec ID/Hint               : MP2
Duration                    : 18 min 7 s
Bit rate mode               : Constant
Bit rate                    : 384 kb/s
Channel(s)                  : 2 channels
Sampling rate               : 48.0 kHz
Frame rate                  : 41.667 FPS (1152 spf)
Compression mode            : Lossy
Delay relative to video     : -80 ms
Stream size                 : 49.8 MiB (4%)
Default                     : Yes
Forced                      : No



Скриншоты:
[+] Всего файлов в раздаче - 1:
Makarevich_07.18.mkv1.37 GB

Текущая раздача:
ДатаКомментарии    РазмерПиры
2018-07-25 U Андрей Макаревич - Выступление в Юрмале [21.07] (2018) HDTV 1080i 1.37 GB ↑ 27 ↓ 8

Показать еще раздачи по запросу андрей:
2018-08-16 U Андрей Бинев - Тихий солдат (2013) FB2 2.75 MB ↑ 52 ↓ 0
2018-08-08 U Андрей Кардашов - Крушение: Выжить в Тайге (2018) MP3 217.04 MB ↑ 74 ↓ 10
2018-08-08 U Андрей Буторин - Червоточина (2018) MP3 367.57 MB ↑ 49 ↓ 7
2018-07-24 U Андрей Макаревич & Yo5 - Yo5 (2018) MP3 110.58 MB ↑ 146 ↓ 4
2018-07-18 U Андрей Круз, Андрей Царёв - Земли лишних. Андрей Новиков 2. Последний борт на Одессу (2018) МР3 303.29 MB ↑ 112 ↓ 20
2018-07-18 U Андрей Круз, Андрей Царёв - Земли лишних. Андрей Новиков 1. Два билета туда (2018) МР3 740.76 MB ↑ 106 ↓ 13
2018-07-15 U Андрей Красников - Сборник произведений (2017-2018) FB2 10.44 MB ↑ 166 ↓ 6

Отзывы
Зарегистрируйтесь чтобы добавить комментарий.
Обратная связь
Copyleft ©