↑↓Torrent.by
Поиск
Логин: Регистрация
Пароль: Восстановить пароль
Загрузка...

Прощаться не будем (2018) WEB-DLRip-AVC от ExKinoRay | iTunes

Скачать proschatsya-ne-budem-2018-web-dlrip-avc-ot-exkinoray-itunes.torrent
U Магнитная ссылка Размер: 745.07 MB Раздают: 150 Качают: 36 Добавлен: 2018-07-26 16:07:55
Прощаться не будем (2018) WEB-DLRip-AVC от ExKinoRay | iTunes

Название: Прощаться не будем
Год выхода: 2018
Жанр:  Военный, драма, история
Режиссер: Павел Дроздов
В ролях: Андрей Мерзликин, Алена Чехова, Артур Ваха, Анатолий Гущин, Егор Бероев, Юрий Кузнецов, Дагун Омаев, Сергей Горобченко, Родион Долгирев, Анна Чурина и др.

О фильме :
Октябрь сорок первого года. Многотысячное немецкое войско наступает на Калинин (ныне Тверь), чтобы, захватив его, открыть себе прямой путь на Москву. На защите города всего две тысячи человек без танков и артиллерии. Единственная надежда задержать врага — эшелоны пятой стрелковой дивизии, которые вот-вот должны пройти через Калининскую станцию. Но диверсанты намерены сделать все, чтобы этого не случилось. Начальник Калининского гарнизона, майор Павел Сысоев, изо всех сил пытаясь сохранить в городе порядок и спокойствие, сам попадает под подозрение в причастности к вражеской диверсионной группе.

Страна: Россия
Студия: Корпорация «Русская Фильм Группа», Студия «Мост», «RFG Distribution»
Продолжительность: 01:55:21
Язык: Русский | iTunes

Файл
Формат: MKV
Качество: WEB-DLRip-AVC
Видео: MPEG-4 AVC, 768x320, ~ 826 Кбит/с
Аудио:  AAC-HE, 2 ch, ~ 76 Кбит/с
Субтитры: Нет

Релиз:


[+] MI
Общее
Уникальный идентификатор : 172686461526948005934881189675544564822 (0x81EA33E5C0C3B2C680BD35278A8B5456)
Полное имя : D:MOVIESProshchatsyaNeBudem.2018.ExKinoRay.mkv
Формат : Matroska
Версия формата : Version 4 / Version 2
Размер файла : 745 Мбайт
Продолжительность : 1 ч. 55 м.
Общий поток : 903 Кбит/сек
Дата кодирования : UTC 2018-07-26 04:11:45
Программа кодирования : mkvmerge v15.0.0 ('Duel with the Devil') 64-bit
Библиотека кодирования : libebml v1.3.5 + libmatroska v1.4.5

Видео
Идентификатор : 1
Формат : AVC
Формат/Информация : Advanced Video Codec
Профиль формата : High@L4.1
Параметр CABAC формата : Да
Параметр RefFrames формата : 12 кадров
Идентификатор кодека : V_MPEG4/ISO/AVC
Продолжительность : 1 ч. 55 м.
Битрейт : 826 Кбит/сек
Ширина : 768 пикселей
Высота : 320 пикселей
Соотношение сторон : 2,40:1
Режим частоты кадров : Постоянный
Частота кадров : 24,000 кадра/сек
Цветовое пространство : YUV
Субдискретизация насыщенности : 4:2:0
Битовая глубина : 8 бит
Тип развёртки : Прогрессивная
Бит/(Пиксели*Кадры) : 0.140
Размер потока : 681 Мбайт (91%)
Библиотека кодирования : x264 core 152 r2851kMod ba24899
Настройки программы : cabac=1 / ref=12 / deblock=1:-3:-3 / analyse=0x3:0x133 / me=umh / subme=10 / psy=1 / fade_compensate=0.00 / psy_rd=1.00:0.15 / mixed_ref=1 / me_range=32 / chroma_me=1 / trellis=2 / 8x8dct=1 / cqm=0 / deadzone=21,11 / fast_pskip=0 / chroma_qp_offset=-3 / threads=6 / lookahead_threads=1 / sliced_threads=0 / nr=0 / decimate=0 / interlaced=0 / bluray_compat=0 / constrained_intra=0 / bframes=11 / b_pyramid=2 / b_adapt=2 / b_bias=0 / direct=3 / weightb=1 / open_gop=0 / weightp=2 / keyint=240 / keyint_min=23 / scenecut=40 / intra_refresh=0 / rc_lookahead=40 / rc=2pass / mbtree=1 / bitrate=826 / ratetol=1.0 / qcomp=0.60 / qpmin=0 / qpmax=69 / qpstep=4 / cplxblur=20.0 / qblur=0.5 / ip_ratio=1.40 / aq=3:1.00
Default : Да
Forced : Нет

Аудио
Идентификатор : 2
Формат : AAC
Формат/Информация : Advanced Audio Codec
Профиль формата : HE-AAC / LC
Идентификатор кодека : A_AAC
Продолжительность : 1 ч. 55 м.
Битрейт : 76,0 Кбит/сек
Каналы : 2 канала
Расположение каналов : Front: L R
Частота : 48,0 КГц / 24,0 КГц
Частота кадров : 23,438 кадра/сек (1024 SPF)
Метод сжатия : С потерями
Задержка видео : 31 мс.
Размер потока : 62,7 Мбайт (8%)
Default : Да
Forced : Нет

Меню
00:00:00.000 : en:Глава 1
00:07:24.916 : en:Глава 2
00:14:18.624 : en:Глава 3
00:21:54.707 : en:Глава 4
00:29:41.582 : en:Глава 5
00:35:32.582 : en:Глава 6
00:40:23.748 : en:Глава 7
00:45:29.081 : en:Глава 8
00:52:01.497 : en:Глава 9
00:59:00.663 : en:Глава 10
01:07:20.538 : en:Глава 11
01:13:37.704 : en:Глава 12
01:18:24.079 : en:Глава 13
01:27:47.162 : en:Глава 14
01:35:29.120 : en:Глава 15
01:40:38.203 : en:Глава 16
01:47:06.786 : en:Глава 17



Скриншоты:
[+] Всего файлов в раздаче - 1:
ProshchatsyaNeBudem.2018.ExKinoRay.mkv745.07 MB

Текущая раздача:
ДатаКомментарии    РазмерПиры
2018-07-26 U Прощаться не будем (2018) WEB-DLRip-AVC от ExKinoRay | iTunes 745.07 MB ↑ 150 ↓ 36

Похожие раздачи по запросу - прощаться:
2018-07-21 U Прощаться не будем (2018) WEB-DLRip от Generalfilm | КПК | iTunes 438.25 MB ↑ 85 ↓ 14
2018-07-21 U Прощаться не будем (2018) WEB-DLRip-AVC от OlLanDGroup | iTunes 1.46 GB ↑ 377 ↓ 99
2018-07-21 U Прощаться не будем (2018) WEB-DLRip от GeneralFilm | iTunes 746.61 MB ↑ 234 ↓ 58
2018-07-20 U Прощаться не будем (2018) WEB-DL 1080p | iTunes 4.00 GB ↑ 815 ↓ 570
2018-07-20 U Прощаться не будем (2018) WEB-DLRip | iTunes 1.46 GB ↑ 1597 ↓ 528

Отзывы
Зарегистрируйтесь чтобы добавить комментарий.
Обратная связь
Copyleft ©