↑↓Torrent.by
Поиск
Логин: Регистрация
Пароль: Восстановить пароль
Загрузка...

Касл-Рок / Castle Rock [01x01 из 10] (2018) WEBRip 720p | OMSKBIRD

Скачать kasl-rok-castle-rock-01x01-iz-10-2018-webrip-720p-omskbird.torrent
U Магнитная ссылка Размер: 1.18 GB Раздают: 60 Качают: 5 Добавлен: 2018-07-26 21:04:09
Касл-Рок / Castle Rock [01x01 из 10] (2018) WEBRip 720p | OMSKBIRD

Название: Касл-Рок
Оригинальное название: Castle Rock
Год выхода: 2018
Жанр: ужасы, триллер, драма
Режиссер: Майкл Аппендаль, Дэниэл Эттиэс, Кевин Хукс
В ролях: елани Лински, Скотт Гленн, Андре Холланд, Джейн Леви, Терри О’Куинн, Билл Скарсгард, Сисси Спейсек, Калил Харрис, Чоузен Джейкобс и др.

О фильме:
Сериал основан на рассказах Стивена Кинга, действие которых происходит в вымышленном городке Касл-Рок.

Страна: США
Продолжительность: ~ 50 мин. серия
Перевод: Любительский (многоголосый закадровый) | OMSKBIRD

Файл
Кодек: MPEG-4 AVC
Качество: WEBRip 720p
Видео: AVC, 1280x720 (16:9), 23.976 fps, ~ 3000 kbps
Звук: Аудио rus: AC-3, 48 KHz, 2 ch, 192 kbps | OMSKBIRD records

Семпл

Присутствует реклама!


[+] Mediainfo:


General
Unique ID                   : 206005309746808020728976197176783831860 (0x9AFB2DF20904DC70A065B9D3E1D08334)
Complete name               : H:Мои ДокументыВидеоРАЗДАЧИКасл-РокCastle Rock S01 WEBRip 720p (OMSKBIRD)Castle Rock S01E01 WEBRip 720p (OMSKBIRD).mkv
Format                      : Matroska
Format version              : Version 2
File size                   : 1.18 GiB
Duration                    : 55 min 9 s
Overall bit rate            : 3 064 kb/s
Encoded date                : UTC 2018-07-26 11:27:23
Writing application         : mkvmerge v4.0.0 ('The Stars were mine') сборка от Jun  6 2010 16:18:42
Writing library             : libebml v1.0.0 + libmatroska v1.0.0

Video
ID                          : 1
Format                      : AVC
Format/Info                 : Advanced Video Codec
Format profile              : Main@L4.1
Format settings, CABAC      : Yes
Format settings, RefFrames  : 3 frames
Codec ID                    : V_MPEG4/ISO/AVC
Duration                    : 55 min 9 s
Bit rate                    : 2 811 kb/s
Width                       : 1 280 pixels
Height                      : 720 pixels
Display aspect ratio        : 16:9
Frame rate mode             : Constant
Frame rate                  : 23.976 (24000/1001) FPS
Standard                    : NTSC
Color space                 : YUV
Chroma subsampling          : 4:2:0
Bit depth                   : 8 bits
Scan type                   : Progressive
Bits/(Pixel*Frame)          : 0.127
Stream size                 : 1.08 GiB (92%)
Language                    : English
Default                     : Yes
Forced                      : No
Color range                 : Limited
Color primaries             : BT.709
Transfer characteristics    : BT.709
Matrix coefficients         : BT.709

Audio
ID                          : 2
Format                      : AC-3
Format/Info                 : Audio Coding 3
Format settings, Endianness : Big
Codec ID                    : A_AC3
Duration                    : 55 min 9 s
Bit rate mode               : Constant
Bit rate                    : 192 kb/s
Channel(s)                  : 2 channels
Channel positions           : Front: L R
Sampling rate               : 48.0 kHz
Frame rate                  : 31.250 FPS (1536 SPF)
Bit depth                   : 16 bits
Compression mode            : Lossy
Stream size                 : 75.7 MiB (6%)
Service kind                : Complete Main
Default                     : Yes
Forced                      : No




Скриншоты:
[+] Всего файлов в раздаче - 1:
Castle Rock S01E01 WEBRip 720p (OMSKBIRD).mkv1.18 GB

Текущая раздача:
ДатаКомментарии    РазмерПиры
2018-07-26 U Касл-Рок / Castle Rock [01x01 из 10] (2018) WEBRip 720p | OMSKBIRD 1.18 GB ↑ 60 ↓ 5

Показать еще раздачи по запросу касл:
2018-08-16 U Касл-Рок / Castle Rock [01x01-06 из 10] (2018) WEBRip 720p | BaibaKo 5.69 GB ↑ 35 ↓ 35
2018-08-15 U Касл-Рок / Castle Rock [01x01-06 из 10] (2018) WEBRip 720p | SunshineStudio 4.33 GB ↑ 62 ↓ 87
2018-08-11 U Касл-Рок / Castle Rock [01x01-05 из 10] (2018) WEBRip | LostFilm 2.98 GB ↑ 60 ↓ 73
2018-08-10 U Касл-Рок / Castle Rock [01x01-05 из 10] (2018) WEBRip 720p | BaibaKo 4.77 GB ↑ 25 ↓ 53
2018-08-08 U Касл-Рок / Castle Rock [01x01-05 из 10] (2018) WEBRip 720p | SunshineStudio 3.65 GB ↑ 36 ↓ 290
2018-08-04 U Касл-Рок / Castle Rock [01x01-04 из 10] (2018) WEBRip | LostFilm 2.39 GB ↑ 43 ↓ 50
2018-08-02 U Касл-Рок / Castle Rock [01x01-04 из 10] (2018) WEBRip 720p | BaibaKo 3.86 GB ↑ 79 ↓ 24

Отзывы
Зарегистрируйтесь чтобы добавить комментарий.
Обратная связь
Copyleft ©