↑↓Torrent.by
Поиск
Логин: Регистрация
Пароль: Восстановить пароль
Загрузка...

Легенда о Тиле (1976) DVDRip-AVC от KORSAR

Скачать legenda-o-tile-1976-dvdrip-avc-ot-korsar.torrent
U Магнитная ссылка Размер: 7.69 GB Раздают: 43 Качают: 17 Добавлен: 2018-07-27 06:20:30
Легенда о Тиле (1976) DVDRip-AVC от KORSAR

Название: Легенда о Тиле
Год выпуска: 1976
Жанр:  Приключения, история
Режиссер: Александр Алов, Владимир Наумов
В ролях: Лембит Ульфсак, Наталья Белохвостикова, Евгений Леонов, Михаил Ульянов, Лариса Малеванная, Алла Демидова, Анатолий Солоницын, Иннокентий Смоктуновский, Николай Горлов, Николай Граббе, Владислав Дворжецкий, Евгений Евстигнеев, Вадим Захарченко, Леонид Иудов, Владимир Кашпур, Юрий Квятковский, Владимир Лебедев, Игорь Ледогоров, Сергей Торкачевский, Анатолий Яббаров, Игорь Ясулович, Вера Васильева, Олег Видов, Сергей Кулагин, Юозас Будрайтис, Людмила Иванова, Александр Январёв, Анатолий Обухов, Лев Перфилов, Анатолий Соловьёв, Ян Янакиев, Николай Карнаухов, Алексей Панькин, Александр Пятков

О фильме: По мотивам романа Шарля де Костера "Легенда о Тиле Улиншпигеле". Свободолюбивый и жизнерадостный народ Нидерландов под властью испанского короля. Гонения, пытки, костры инквизации. Бесстрашному Тилю Уленшпигелю и его неунывающему другу Ламме предстоит пройти множество испытаний, совершить немало подвигов, прежде чем на их родную землю вернется мир.

Выпущено: СССР, Мосфильм
Продолжительность: 4 х ~ 01:20:03
Перевод: Не требуется

Файл
Качество: DVDRip-AVC
Видео: MPEG-4 AVC, 712x572@760x572, 2882 Кбит/с, 25.000 Кадр/с
Аудио 1: Русский: АС3, 6 ch, 448 Кбит/с
Аудио 2: Русский: АС3, 1 ch, 224 Кбит/с
Субтитры: Нет

Релиз:


[+] MediaInfo
x264 [info]: frame I:556   Avg QP:16.20  size: 61786
x264 [info]: frame P:23096 Avg QP:17.61  size: 30879
x264 [info]: frame B:91929 Avg QP:19.21  size:  9960

=====================================

Общее
Уникальный идентификатор                 : 177772213178478832869028980795727278296 (0x85BDAED02D898A37B46D2EF73F15F0D8)
Полное имя                               : Легенда о Тиле.1976.DVDRip-AVC.KORSAR.mkv
Формат                                   : Matroska
Версия формата                           : Version 2
Размер файла                             : 1,91 Гбайт
Продолжительность                        : 1 ч. 17 м.
Общий поток                              : 3556 Кбит/сек
Дата кодирования                         : UTC 2014-08-19 13:32:49
Программа кодирования                    : mkvmerge v5.2.0 ('I can't explain') built on Dec 18 2011 18:12:03
Библиотека кодирования                   : libebml v1.2.3 + libmatroska v1.3.0

Видео
Идентификатор                            : 1
Формат                                   : AVC
Формат/Информация                        : Advanced Video Codec
Профиль формата                          : High@L4.1
Параметр CABAC формата                   : Да
Параметр RefFrames формата               : 14 кадров
Идентификатор кодека                     : V_MPEG4/ISO/AVC
Продолжительность                        : 1 ч. 17 м.
Битрейт                                  : 2882 Кбит/сек
Ширина                                   : 712 пикселей
Высота                                   : 572 пикселя
Соотношение сторон                       : 4:3
Соотношение сторон в оригинале           : 4:3
Режим частоты кадров                     : Постоянный
Частота кадров                           : 25,000 кадров/сек
Цветовое пространство                    : YUV
Субдискретизация насыщенности            : 4:2:0
Битовая глубина                          : 8 бит
Тип развёртки                            : Прогрессивная
Бит/(Пиксели*Кадры)                      : 0.283
Размер потока                            : 1,51 Гбайт (79%)
Библиотека кодирования                   : x264 core 130 r2273 b3065e6
Настройки программы                      : cabac=1 / ref=14 / deblock=1:-2:-2 / analyse=0x3:0x133 / me=umh / subme=11 / psy=1 / psy_rd=1.05:0.10 / mixed_ref=1 / me_range=24 / chroma_me=1 / trellis=2 / 8x8dct=1 / cqm=0 / deadzone=21,11 / fast_pskip=0 / chroma_qp_offset=-3 / threads=12 / lookahead_threads=2 / sliced_threads=0 / nr=0 / decimate=0 / interlaced=0 / bluray_compat=0 / constrained_intra=0 / bframes=7 / b_pyramid=2 / b_adapt=2 / b_bias=0 / direct=3 / weightb=1 / open_gop=0 / weightp=2 / keyint=250 / keyint_min=25 / scenecut=40 / intra_refresh=0 / rc=2pass / mbtree=0 / bitrate=2882 / ratetol=1.0 / qcomp=0.65 / qpmin=0 / qpmax=39 / qpstep=4 / cplxblur=20.0 / qblur=0.5 / ip_ratio=1.40 / pb_ratio=1.30 / aq=1:1.00
Язык                                     : English
Default                                  : Да
Forced                                   : Нет
Цветовой диапазон                        : Limited
Основные цвета                           : BT.601 PAL
Характеристики трансфера                 : BT.470 System B, BT.470 System G
Коэффициенты матрицы                     : BT.601

Аудио #1
Идентификатор                            : 2
Формат                                   : AC-3
Формат/Информация                        : Audio Coding 3
Параметр Endianness формата              : Big
Идентификатор кодека                     : A_AC3
Продолжительность                        : 1 ч. 17 м.
Вид битрейта                             : Постоянный
Битрейт                                  : 448 Кбит/сек
Каналы                                   : 6 каналов
Расположение каналов                     : Front: L C R, Side: L R, LFE
Частота                                  : 48,0 КГц
Частота кадров                           : 31,250 кадров/сек (1536 SPF)
Битовая глубина                          : 16 бит
Метод сжатия                             : С потерями
Задержка видео                           : 158 мс.
Размер потока                            : 247 Мбайт (13%)
Язык                                     : Russian
Default                                  : Да
Forced                                   : Нет

Аудио #2
Идентификатор                            : 3
Формат                                   : AC-3
Формат/Информация                        : Audio Coding 3
Параметр Endianness формата              : Big
Идентификатор кодека                     : A_AC3
Продолжительность                        : 1 ч. 17 м.
Вид битрейта                             : Постоянный
Битрейт                                  : 224 Кбит/сек
Каналы                                   : 1 канал
Расположение каналов                     : Front: C
Частота                                  : 48,0 КГц
Частота кадров                           : 31,250 кадров/сек (1536 SPF)
Битовая глубина                          : 16 бит
Метод сжатия                             : С потерями
Задержка видео                           : 158 мс.
Размер потока                            : 123 Мбайт (6%)
Язык                                     : Russian
Default                                  : Нет
Forced                                   : Нет



Скриншоты:
[+] Всего файлов в раздаче - 4:
Легенда о Тиле-4.mkv2.23 GB
Легенда о Тиле-1.mkv1.91 GB
Легенда о Тиле-3.mkv1.79 GB
Легенда о Тиле-2.mkv1.75 GB

Текущая раздача:
ДатаКомментарии    РазмерПиры
2018-07-27 U Легенда о Тиле (1976) DVDRip-AVC от KORSAR 7.69 GB ↑ 43 ↓ 17

Показать еще раздачи по запросу легенда:
2018-12-13 U Маугли / Маугли: Легенда джунглей / Mowgli (2018) WEBRip 720p от k.e.n & MegaPeer | Пифагор 3.95 GB ↑ 126 ↓ 43
2018-12-09 U Маугли / Маугли: Легенда джунглей / Mowgli (2018) WEBRip 720p | Пифагор 2.18 GB ↑ 304 ↓ 127
2018-12-09 U Маугли / Маугли: Легенда джунглей / Mowgli (2018) WEB-DLRip от Scarabey | Пифагор 746.14 MB ↑ 183 ↓ 37
2018-12-09 U Маугли / Маугли: Легенда джунглей / Mowgli (2018) WEB-DLRip от Scarabey | Пифагор 1.45 GB ↑ 428 ↓ 143
2018-12-09 U Маугли / Маугли: Легенда джунглей / Mowgli (2018) WEBRip 1080p | Пифагор 4.80 GB ↑ 547 ↓ 252
2018-12-08 U Маугли / Маугли: Легенда джунглей / Mowgli (2018) WEB-DLRip от ExKinoRay | Пифагор 1.46 GB ↑ 436 ↓ 118
2018-12-08 U Маугли / Маугли: Легенда джунглей / Mowgli (2018) WEB-DLRip-AVC от Dalemake | D | Пифагор 2.17 GB ↑ 283 ↓ 136

Отзывы
Зарегистрируйтесь чтобы добавить комментарий.
Обратная связь
Copyleft ©