↑↓Torrent.by
Поиск
Логин: Регистрация
Пароль: Восстановить пароль
Загрузка...

Погоня за любовью / Social Animals (2018) WEB-DL 1080p | iTunes

Скачать pogonya-za-lyubovyu-social-animals-2018-web-dl-1080p-itunes.torrent
U Магнитная ссылка Размер: 3.37 GB Раздают: 38 Качают: 26 Добавлен: 2018-07-27 14:23:18
Погоня за любовью / Social Animals (2018) WEB-DL 1080p | iTunes

Погоня за любовью / Social Animals

Страна: США
Производство: Cranium Entertainment, BondIt
Год выпуска: 2018
Жанр:  комедия
Продолжительность: 01:23:43

Режиссер: Тереза Беннетт
Автор сценария: Тереза Беннетт

В ролях: Самира Уайли, Карли Чаикин, Джош Рэднор, Ая Кэш, Ноэль Кристи Уэллс, Фортун Феймстер, Адам Шапиро, Шарлотта Делани Риггс

Описание: Жизнь Зои Крэндл сложилась не совсем так, как она планировала. Её подруги давно замужем и имеют детей, в то время как её жизнь из-за потенциальных воздыхателей и нехватки денег уже начинает катиться под откос. Затем Зои встречает Пола, обаятельного собрата-неудачника, и между ними мгновенно возникает взаимопонимание и взаимное притяжение. Но есть одна проблема: Пол женат на Джейн. И тогда Зои при содействии своей лучшей подруги Клэр разрабатывает план спасения своего бизнеса и своей личной жизни...

Перевод: Профессиональный (полное дублирование) | iTunes
Субтитры: английские (full + SDH), испанские, португальские, итальянские, датские, финские, норвежские, шведские

Качество: WEB-DL 1080p
Формат: МКV
Видео кодек: AVC
Аудио кодек: АС3 | AAC | E-AC3
Видео: 1920x804 (2.40:1), 23.976 fps, MPEG-4 AVC ~4 605 kbps avg
Аудио №1: 48 kHz, AC3 Dolby Digital, 3/2 (L,C,R,l,r) + LFE ch, ~384 kbps | RUS
Аудио №2: 48.0 kHz, Advanced Audio Codec LC, 2/0 (L,R) ch, ~126 kbps | RUS
Аудио №3: 48 kHz, Enhanced Audio Coding 3, 3/2 (L,C,R,l,r) + LFE ch, ~640 kbps | ENG
Формат субтитров: UTF-8 Plain Text

Дата премьеры (мир): 1 июня 2018

Семпл

Релиз от: ylnian


[+] Media Info
General
Полное имя                               : Social.Animals.2018.WEB-DL.1080p-ylnian.mkv
Формат                                   : Matroska
Версия формата                           : Version 4 / Version 2
Размер файла                             : 3,37 Гбайт
Продолжительность                        : 1 ч. 23 м.
Общий поток                              : 5756 Кбит/сек
Название фильма                          : Social.Animals.2018.WEB-DL.1080p-ylnian
Дата кодирования                         : UTC 2018-07-25 07:46:51
Программа кодирования                    : mkvmerge v25.0.0 ('Prog Noir') 64-bit
Библиотека кодирования                   : libebml v1.3.6 + libmatroska v1.4.9

Видео
Идентификатор                            : 1
Формат                                   : AVC
Формат/Информация                        : Advanced Video Codec
Профиль формата                          : High@L4
Настройки формата                        : CABAC / 5 Ref Frames
Параметр CABAC формата                   : Да
Параметр RefFrames формата               : 5 кадров
Идентификатор кодека                     : V_MPEG4/ISO/AVC
Продолжительность                        : 1 ч. 23 м.
Битрейт                                  : 4605 Кбит/сек
Ширина                                   : 1920 пикселей
Высота                                   : 804 пикселя
Соотношение сторон                       : 2,40:1
Режим частоты кадров                     : Постоянный
Частота кадров                           : 23,976 (24000/1001) кадра/сек
Цветовое пространство                    : YUV
Субдискретизация насыщенности            : 4:2:0
Битовая глубина                          : 8 бит
Тип развёртки                            : Прогрессивная
Бит/(Пиксели*Кадры)                      : 0.124
Размер потока                            : 2,69 Гбайт (80%)
Заголовок                                : Social.Animals.2018.WEB-DL.1080p-ylnian
Язык                                     : English
Default                                  : Да
Forced                                   : Да
Цветовой диапазон                        : Limited
Основные цвета                           : BT.709
Характеристики трансфера                 : BT.709
Коэффициенты матрицы                     : BT.709

Аудио #1
Идентификатор                            : 2
Формат                                   : AC-3
Формат/Информация                        : Audio Coding 3
Идентификатор кодека                     : A_AC3
Продолжительность                        : 1 ч. 23 м.
Вид битрейта                             : Постоянный
Битрейт                                  : 384 Кбит/сек
Каналы                                   : 6 каналов
Расположение каналов                     : Front: L C R, Side: L R, LFE
Частота                                  : 48,0 КГц
Частота кадров                           : 31,250 кадров/сек (1536 SPF)
Битовая глубина                          : 16 бит
Метод сжатия                             : С потерями
Размер потока                            : 229 Мбайт (7%)
Заголовок                                : DUB (AC3 5.1 384 kbps)
Язык                                     : Russian
Default                                  : Да
Forced                                   : Да

Аудио #2
Идентификатор                            : 3
Формат                                   : AAC
Формат/Информация                        : Advanced Audio Codec
Профиль формата                          : LC
Идентификатор кодека                     : A_AAC-2
Продолжительность                        : 1 ч. 23 м.
Битрейт                                  : 126 Кбит/сек
Каналы                                   : 2 канала
Расположение каналов                     : Front: L R
Частота                                  : 48,0 КГц
Частота кадров                           : 46,875 кадров/сек (1024 SPF)
Метод сжатия                             : С потерями
Задержка видео                           : 171 мс.
Размер потока                            : 74,9 Мбайт (2%)
Заголовок                                : DUB (AAC 2.0 126 kbps)
Язык                                     : Russian
Default                                  : Нет
Forced                                   : Нет

Аудио #3
Идентификатор                            : 4
Формат                                   : E-AC-3
Формат/Информация                        : Enhanced Audio Coding 3
Идентификатор кодека                     : A_EAC3
Продолжительность                        : 1 ч. 23 м.
Вид битрейта                             : Постоянный
Битрейт                                  : 640 Кбит/сек
Каналы                                   : 6 каналов
Расположение каналов                     : Front: L C R, Side: L R, LFE
Частота                                  : 48,0 КГц
Частота кадров                           : 187,500 кадров/сек (256 SPF)
Метод сжатия                             : С потерями
Размер потока                            : 382 Мбайт (11%)
Заголовок                                : E-AC3 5.1 640 kbps
Язык                                     : English
Default                                  : Нет
Forced                                   : Нет

Текст #1
Идентификатор                            : 5
Формат                                   : UTF-8
Идентификатор кодека                     : S_TEXT/UTF8
Идентификатор кодека/Информация          : UTF-8 Plain Text
Продолжительность                        : 1 ч. 23 м.
Битрейт                                  : 67 бит/сек
ElementCount                             : 1293
Размер потока                            : 40,8 Кбайт (0%)
Заголовок                                : full
Язык                                     : English
Default                                  : Нет
Forced                                   : Нет

Текст #2
Идентификатор                            : 6
Формат                                   : UTF-8
Идентификатор кодека                     : S_TEXT/UTF8
Идентификатор кодека/Информация          : UTF-8 Plain Text
Продолжительность                        : 1 ч. 23 м.
Битрейт                                  : 70 бит/сек
ElementCount                             : 1377
Размер потока                            : 43,2 Кбайт (0%)
Заголовок                                : SDH
Язык                                     : English
Default                                  : Нет
Forced                                   : Нет

Текст #3
Идентификатор                            : 7
Формат                                   : UTF-8
Идентификатор кодека                     : S_TEXT/UTF8
Идентификатор кодека/Информация          : UTF-8 Plain Text
Продолжительность                        : 1 ч. 23 м.
Битрейт                                  : 66 бит/сек
ElementCount                             : 1340
Размер потока                            : 40,4 Кбайт (0%)
Язык                                     : Spanish
Default                                  : Нет
Forced                                   : Нет

Текст #4
Идентификатор                            : 8
Формат                                   : UTF-8
Идентификатор кодека                     : S_TEXT/UTF8
Идентификатор кодека/Информация          : UTF-8 Plain Text
Продолжительность                        : 1 ч. 23 м.
Битрейт                                  : 68 бит/сек
ElementCount                             : 1345
Размер потока                            : 41,7 Кбайт (0%)
Язык                                     : Portuguese
Default                                  : Нет
Forced                                   : Нет

Текст #5
Идентификатор                            : 9
Формат                                   : UTF-8
Идентификатор кодека                     : S_TEXT/UTF8
Идентификатор кодека/Информация          : UTF-8 Plain Text
Продолжительность                        : 1 ч. 23 м.
Битрейт                                  : 70 бит/сек
ElementCount                             : 1281
Размер потока                            : 42,9 Кбайт (0%)
Язык                                     : Italian
Default                                  : Нет
Forced                                   : Нет

Текст #6
Идентификатор                            : 10
Формат                                   : UTF-8
Идентификатор кодека                     : S_TEXT/UTF8
Идентификатор кодека/Информация          : UTF-8 Plain Text
Продолжительность                        : 1 ч. 23 м.
Битрейт                                  : 65 бит/сек
ElementCount                             : 1315
Размер потока                            : 39,8 Кбайт (0%)
Язык                                     : Danish
Default                                  : Нет
Forced                                   : Нет

Текст #7
Идентификатор                            : 11
Формат                                   : UTF-8
Идентификатор кодека                     : S_TEXT/UTF8
Идентификатор кодека/Информация          : UTF-8 Plain Text
Продолжительность                        : 1 ч. 23 м.
Битрейт                                  : 62 бит/сек
ElementCount                             : 1300
Размер потока                            : 38,1 Кбайт (0%)
Язык                                     : Dutch
Default                                  : Нет
Forced                                   : Нет

Текст #8
Идентификатор                            : 12
Формат                                   : UTF-8
Идентификатор кодека                     : S_TEXT/UTF8
Идентификатор кодека/Информация          : UTF-8 Plain Text
Продолжительность                        : 1 ч. 23 м.
Битрейт                                  : 60 бит/сек
ElementCount                             : 1309
Размер потока                            : 36,8 Кбайт (0%)
Язык                                     : Finnish
Default                                  : Нет
Forced                                   : Нет

Текст #9
Идентификатор                            : 13
Формат                                   : UTF-8
Идентификатор кодека                     : S_TEXT/UTF8
Идентификатор кодека/Информация          : UTF-8 Plain Text
Продолжительность                        : 1 ч. 23 м.
Битрейт                                  : 58 бит/сек
ElementCount                             : 1343
Размер потока                            : 35,5 Кбайт (0%)
Язык                                     : Norwegian
Default                                  : Нет
Forced                                   : Нет

Текст #10
Идентификатор                            : 14
Формат                                   : UTF-8
Идентификатор кодека                     : S_TEXT/UTF8
Идентификатор кодека/Информация          : UTF-8 Plain Text
Продолжительность                        : 1 ч. 23 м.
Битрейт                                  : 56 бит/сек
ElementCount                             : 1318
Размер потока                            : 34,6 Кбайт (0%)
Язык                                     : Swedish
Default                                  : Нет
Forced                                   : Нет

Меню
00:00:00.000                             : en:1
00:08:56.000                             : en:2
00:17:11.000                             : en:3
00:25:38.000                             : en:4
00:35:12.000                             : en:5
00:44:54.000                             : en:6
00:49:21.000                             : en:7
00:57:06.000                             : en:8
01:08:03.000                             : en:9
01:17:13.000                             : en:10



Скриншоты:
[+] Всего файлов в раздаче - 1:
Social.Animals.2018.WEB-DL.1080p-ylnian.mkv3.37 GB

Показать еще раздачи по запросу погоня:
2018-07-25 U Погоня за любовью / Social Animals (2018) WEB-DLRip от MegaPeer | iTunes 1.46 GB ↑ 93 ↓ 32
2017-07-02 U Погоня за прошлым / Капитан Журавлёва [01-16 из 16] (2015) HDTVRip от Files-x 8.59 GB ↑ 180 ↓ 93
2017-05-29 U Погоня за шедевром [01-02 из 02] (2016) HDTVRip 720p от MediaClub 2.47 GB ↑ 329 ↓ 90
2017-05-29 U Погоня за шедевром (2016) SATRip от GeneralFilm 1.15 GB ↑ 210 ↓ 70
2017-05-29 U Погоня за шедевром [02 из 02] (2016) HDTVRip от Files-x 1.17 GB ↑ 78 ↓ 54
2016-05-20 U Погоня за прошлым / Капитан Журавлёва [01-08 из 16] (2015) SATRip от Files-x 4.30 GB ↑ 41 ↓ 43
2016-05-19 U Погоня за прошлым / Капитан Журавлёва [01-06 из 16] (2015) SATRip от Files-x 3.22 GB ↑ 195 ↓ 110

Отзывы
Зарегистрируйтесь чтобы добавить комментарий.
Обратная связь
Copyleft ©