↑↓Torrent.by
Поиск
Логин: Регистрация
Пароль: Восстановить пароль
Загрузка...

Закат цивилизации / Extinction (2018) WEBRiр от R.G.Resident | Sub

Скачать zakat-civilizacii-extinction-2018-webrir-ot-r-g-resident-sub.torrent
U Магнитная ссылка Размер: 1.46 GB Раздают: 269 Качают: 64 Добавлен: 2018-07-28 03:51:40
Закат цивилизации / Extinction (2018) WEBRiр от R.G.Resident | Sub

Название: Закат цивилизации
Оригинальное название: Extinction
Год выпуска: 2018
Страна: США
Жанр: фантастика, триллер
Перевод: Субтитры
Субтитры: Русские (полные, вшитые)
Продолжительность: 01:35:20
Режиссер: Бен Янг
В ролях: Майкл Пенья (Peter), Майк Колтер (David), Лиззи Каплан (Alice), Израэль Бруссар (Miles), Эмма Бут (Samantha), Том Райли (Chris), Лилли Аспелл (Megan), Лекс Шрэпнел (Ray), Эрика Тремблэй (Lucy), Амелия Крауч (Hanna), Сандра Телес (Doctor), Дэн Кейд (Hoyt)

Описание:
Питер видит один и тот же кошмарный сон, в котором он постоянно теряет семью. Однажды сон почти сбывается, когда на Землю прибывают инопланетяне, сеющие смерть, разрушение и ужас. Пытаясь спасти семью, Питер обнаруживает в себе неожиданный источник сил.

Качество: WEBRip
Формат: AVI
Видео: XviD, 720x304 (2.37:1), 1733 kbps, 23,976 fps, 0,330 bpp
Аудио: Английский / AC3 / 5.1 / 48 kHz / 448 kbps - Оригинал
Семпл

Релиз:


[+] ОтчетМедиаИнфо
General
Complete name                            : F:Extinction.2018.NF.Sub.WEBRip.R.G.Resident.avi
Format                                   : AVI
Format/Info                              : Audio Video Interleave
File size                                : 1.46 GiB
Duration                                 : 1 h 35 min
Overall bit rate                         : 2 191 kb/s
Writing application                      : VirtualDubModRus 1.5.10.2 (build 2542/release)
Writing library                          : VirtualDubMod build 2542/release

Video
ID                                       : 0
Format                                   : MPEG-4 Visual
Format profile                           : Advanced Simple@L5
Format settings, BVOP                    : 1
Format settings, QPel                    : No
Format settings, GMC                     : No warppoints
Format settings, Matrix                  : Custom
Codec ID                                 : XVID
Codec ID/Hint                            : XviD
Duration                                 : 1 h 35 min
Bit rate                                 : 1 733 kb/s
Width                                    : 720 pixels
Height                                   : 304 pixels
Display aspect ratio                     : 2.35:1
Frame rate                               : 23.976 (24000/1001) FPS
Color space                              : YUV
Chroma subsampling                       : 4:2:0
Bit depth                                : 8 bits
Scan type                                : Progressive
Compression mode                         : Lossy
Bits/(Pixel*Frame)                       : 0.330
Stream size                              : 1.15 GiB (79%)
Writing library                          : XviD 73

Audio
ID                                       : 1
Format                                   : AC-3
Format/Info                              : Audio Coding 3
Mode extension                           : CM (complete main)
Format settings, Endianness              : Big
Codec ID                                 : 2000
Duration                                 : 1 h 35 min
Bit rate mode                            : Constant
Bit rate                                 : 448 kb/s
Channel(s)                               : 6 channels
Channel positions                        : Front: L C R, Side: L R, LFE
Sampling rate                            : 48.0 kHz
Frame rate                               : 31.250 FPS (1536 spf)
Compression mode                         : Lossy
Stream size                              : 305 MiB (20%)
Alignment                                : Split accross interleaves
Interleave, duration                     : 42  ms (1.00 video frame)
Interleave, preload duration             : 500  ms



[+] Осторожно - спойлер!
ииии простите за наглость =))



Скриншоты:
[+] Всего файлов в раздаче - 1:
Extinction.2018.NF.Sub.WEBRip.R.G.Resident.avi1.46 GB

Текущая раздача:
ДатаКомментарии    РазмерПиры
2018-07-28 U Закат цивилизации / Extinction (2018) WEBRiр от R.G.Resident | Sub 1.46 GB ↑ 269 ↓ 64

Показать еще раздачи по запросу закат:
2018-08-12 U Закат цивилизации / Extinction (2018) WEB-DLRip-AVC от ExKinoRay | HDRezka Studio 744.23 MB ↑ 48 ↓ 24
2018-08-11 U Закат цивилизации / Extinction (2018) WEB-DLRip от MegaPeer | HDrezka Studio 745.45 MB ↑ 28 ↓ 15
2018-08-09 U Закат цивилизации / Extinction (2018) WEB-DLRip от Generalfilm | КПК | P 362.36 MB ↑ 39 ↓ 252
2018-08-08 U Закат цивилизации / Extinction (2018) WEB-DLRip-AVC от OlLanDGroup | P, L | HDrezka Studio 1.76 GB ↑ 121 ↓ 58
2018-08-08 U Закат цивилизации / Extinction (2018) WEB-DLRip от MegaPeer | P, L | HDrezka Studio 1.59 GB ↑ 41 ↓ 56
2018-08-08 U Закат цивилизации / Extinction (2018) WEB-DLRip от MegaPeer | L 745.45 MB ↑ 66 ↓ 19
2018-08-04 U Закат цивилизации / Extinction (2018) WEB-DLRip-AVC от OlLanDGroup | L 1.63 GB ↑ 156 ↓ 49

Отзывы
Зарегистрируйтесь чтобы добавить комментарий.
Обратная связь
Copyleft ©