↑↓Torrent.by
Поиск
Логин: Регистрация
Пароль: Восстановить пароль
Загрузка...

Лето (2018) WEB-DLRip | iTunes

Скачать leto-2018-web-dlrip-itunes.torrent
U Магнитная ссылка Размер: 1.46 GB Раздают: 320 Качают: 176 Добавлен: 2018-07-28 19:10:20
Лето (2018) WEB-DLRip | iTunes

Название: Лето
Год выхода: 2018
Жанр: Биография, музыка, драма
Режиссер: Кирилл Серебренников
В ролях: Рома Зверь, Ирина Старшенбаум, Тео Ю, Филипп Авдеев, Евгений Серзин, Александр Горчилин, Василий Михайлов, Александр Кузнецов, Никита Ефремов, Герман Осипов и др.

О фильме: Фильм рассказывает о самом начале творческого пути Виктора Цоя и группы «Кино», о его взаимоотношениях с Майком Науменко, его женой Натальей и многими, кто был в авангарде рок-движения Ленинграда 1981 года. Это история о Ленинграде 80-х, о любви, поисках и больших надеждах — о настроении, которое останется с нами навсегда.

Страна: Россия
Перевод: Не требуется
Продолжительность: 02:08:34

Файл
Формат: AVI
Качество: WEB-DLRip
Видео: Xvid, 720x272, ~1421 kbps, 23,976 fps
Звук: русский, AC3, 2 ch, 48 kHz, 192 kbps | iTunes
Субтитры: нет


[+] MI
General
Полное имя                               : F:TorrentLeto.avi
Формат                                   : AVI
Формат/Информация                        : Audio Video Interleave
Размер файла                             : 1.46 GiB
Продолжительность                        : 2 h 8 min
Общий поток                              : 1 622 kb/s
Библиотека кодирования                   : VirtualDub build 35491/release

Video
Идентификатор                            : 0
Формат                                   : MPEG-4 Visual
Профиль формата                          : Advanced Simple@L5
Настройки формата                        : BVOP2 / Custom Matrix
Параметр BVOP формата                    : 2
Параметр QPel формата                    : No
Параметр GMC формата                     : No warppoints
Параметр матрицы формата                 : Custom
Идентификатор кодека                     : XVID
Идентификатор кодека/Подсказка           : XviD
Продолжительность                        : 2 h 8 min
Битрейт                                  : 1 421 kb/s
Ширина                                   : 720 pixels
Высота                                   : 272 pixels
Соотношение сторон                       : 2.647
Частота кадров                           : 23.976 (24000/1001) FPS
Цветовое пространство                    : YUV
Субдискретизация насыщенности            : 4:2:0
Битовая глубина                          : 8 bits
Тип развёртки                            : Progressive
Метод сжатия                             : Lossy
Бит/(Пиксели*Кадры)                      : 0.303
Размер потока                            : 1.28 GiB (88%)
Библиотека кодирования                   : XviD 67

Audio
Идентификатор                            : 1
Формат                                   : AC-3
Формат/Информация                        : Audio Coding 3
Идентификатор кодека                     : 2000
Продолжительность                        : 2 h 8 min
Вид битрейта                             : Constant
Битрейт                                  : 192 kb/s
Каналы                                   : 2 channels
Расположение каналов                     : Front: L R
Частота                                  : 48.0 kHz
Частота кадров                           : 31.250 FPS (1536 SPF)
Битовая глубина                          : 16 bits
Метод сжатия                             : Lossy
Размер потока                            : 177 MiB (12%)
Выравнивание                             : Aligned on interleaves
Продолжительность промежутка             : 42  ms (1.00 video frame)
Время предзагрузки промежутка            : 512  ms




[+] MI
General
Unique ID                                : 243578925056184107357721523805384774972 (0xB73F983500566410BBC4509C3846953C)
Complete name                            : D:LETOLeto1080p.mkv
Format                                   : Matroska
Format version                           : Version 4 / Version 2
File size                                : 4.18 GiB
Duration                                 : 2 h 8 min
Overall bit rate                         : 4 655 kb/s
Encoded date                             : UTC 2018-07-28 11:57:50
Writing application                      : mkvmerge v9.5.0 ('Quiet Fire') 64bit
Writing library                          : libebml v1.3.4 + libmatroska v1.4.5

Video
ID                                       : 1
Format                                   : AVC
Format/Info                              : Advanced Video Codec
Format profile                           : High@L4
Format settings                          : CABAC / 5 Ref Frames
Format settings, CABAC                   : Yes
Format settings, RefFrames               : 5 frames
Codec ID                                 : V_MPEG4/ISO/AVC
Duration                                 : 2 h 8 min
Bit rate                                 : 4 525 kb/s
Width                                    : 1 920 pixels
Height                                   : 796 pixels
Display aspect ratio                     : 2.40:1
Frame rate mode                          : Constant
Frame rate                               : 23.976 FPS
Color space                              : YUV
Chroma subsampling                       : 4:2:0
Bit depth                                : 8 bits
Scan type                                : Progressive
Bits/(Pixel*Frame)                       : 0.124
Stream size                              : 4.06 GiB (97%)
Language                                 : English
Default                                  : Yes
Forced                                   : No
Color range                              : Limited
Color primaries                          : BT.709
Transfer characteristics                 : BT.709
Matrix coefficients                      : BT.709

Audio
ID                                       : 2
Format                                   : AAC
Format/Info                              : Advanced Audio Codec
Format profile                           : LC
Codec ID                                 : A_AAC-2
Duration                                 : 2 h 8 min
Bit rate                                 : 127 kb/s
Channel(s)                               : 2 channels
Channel positions                        : Front: L R
Sampling rate                            : 48.0 kHz
Frame rate                               : 46.875 FPS (1024 SPF)
Compression mode                         : Lossy
Stream size                              : 117 MiB (3%)
Language                                 : Russian
Default                                  : Yes
Forced                                   : No

Menu
00:00:00.000                             : en:1
00:07:49.678                             : en:2
00:19:53.276                             : en:3
00:26:38.055                             : en:4
00:33:11.531                             : en:5
00:39:21.359                             : en:6
00:47:48.532                             : en:7
00:57:58.683                             : en:8
01:03:25.968                             : en:9
01:11:15.771                             : en:10
01:19:38.148                             : en:11
01:27:43.925                             : en:12
01:34:11.103                             : en:13
01:44:15.874                             : en:14
01:50:17.652                             : en:15
01:58:53.834                             : en:16



[+] MI
General
Complete name                            : D:LETOLETO _ ЛЕТО (1080p HD).mp4
Format                                   : MPEG-4
Format profile                           : Base Media / Version 2
Codec ID                                 : mp42 (mp42/isom)
File size                                : 4.18 GiB
Duration                                 : 2 h 8 min
Overall bit rate mode                    : Variable
Overall bit rate                         : 4 656 kb/s
Movie name                               : LETO / ЛЕТО
Performer                                : Kirill Serebrennikov
Genre                                    : Драма
Deion                              : Фильм рассказывает о самом начале творческого пути Виктора Цоя (Тео Ю) и группы «Кино», о его
Recorded date                            : UTC 2018-06-04 07:00:00
Encoded date                             : UTC 2018-07-28 11:51:03
Tagged date                              : UTC 2018-07-28 11:56:24
Cover                                    : Yes
LongDeion                          : Фильм рассказывает о самом начале творческого пути Виктора Цоя (Тео Ю) и группы «Кино», о его взаимоотношениях с Майком Науменко (дебют в кино Ромы Зверя), его женой Натальей (Ирина Старшенбаум) и многими, кто был в авангарде рок-движения Ленинграда 1981 года. Это история о Ленинграде 80-х, о любви, поисках и больших надеждах – о настроении, которое останется с нами навсегда. Фильм полон музыки, которой живут и дышат герои: группа «Кино», Майк Науменко, культовые треки того времени.

Video
ID                                       : 2
Format                                   : AVC
Format/Info                              : Advanced Video Codec
Format profile                           : High@L4
Format settings                          : CABAC / 5 Ref Frames
Format settings, CABAC                   : Yes
Format settings, RefFrames               : 5 frames
Codec ID                                 : avc1
Codec ID/Info                            : Advanced Video Coding
Duration                                 : 2 h 8 min
Bit rate                                 : 4 525 kb/s
Width                                    : 1 920 pixels
Height                                   : 796 pixels
Display aspect ratio                     : 2.40:1
Frame rate mode                          : Variable
Frame rate                               : 23.976 FPS
Minimum frame rate                       : 23.976 FPS
Maximum frame rate                       : 28.543 FPS
Color space                              : YUV
Chroma subsampling                       : 4:2:0
Bit depth                                : 8 bits
Scan type                                : Progressive
Bits/(Pixel*Frame)                       : 0.124
Stream size                              : 4.06 GiB (97%)
Language                                 : English
Encoded date                             : UTC 2018-07-28 11:55:02
Tagged date                              : UTC 2018-07-28 11:56:22
Color range                              : Limited
Color primaries                          : BT.709
Transfer characteristics                 : BT.709
Matrix coefficients                      : BT.709

Audio
ID                                       : 1
Format                                   : AAC
Format/Info                              : Advanced Audio Codec
Format profile                           : LC
Codec ID                                 : mp4a-40-2
Duration                                 : 2 h 8 min
Duration_LastFrame                       : -8 ms
Bit rate mode                            : Variable
Bit rate                                 : 127 kb/s
Maximum bit rate                         : 247 kb/s
Channel(s)                               : 2 channels
Channel positions                        : Front: L R
Sampling rate                            : 48.0 kHz
Frame rate                               : 46.875 FPS (1024 SPF)
Compression mode                         : Lossy
Stream size                              : 117 MiB (3%)
Language                                 : Russian
Default                                  : Yes
Alternate group                          : 1
Encoded date                             : UTC 2018-07-28 11:51:05
Tagged date                              : UTC 2018-07-28 11:55:01
Menus                                    : 3

Menu
ID                                       : 3
Codec ID                                 : text
Duration                                 : 2 h 8 min
Encoded date                             : UTC 2018-07-28 11:56:24
Tagged date                              : UTC 2018-07-28 11:56:24
Menu For                                 : 1
00:00:00.000                             : 1
00:07:49.678                             : 2
00:19:53.276                             : 3
00:26:38.055                             : 4
00:33:11.531                             : 5
00:39:21.359                             : 6
00:47:48.532                             : 7
00:57:58.683                             : 8
01:03:25.968                             : 9
01:11:15.771                             : 10
01:19:38.148                             : 11
01:27:43.925                             : 12
01:34:11.103                             : 13
01:44:15.874                             : 14
01:50:17.652                             : 15
01:58:53.834                             : 16
Bit rate mode                            : VBR



Скриншоты:
[+] Всего файлов в раздаче - 1:
Leto.avi1.46 GB

Текущая раздача:
ДатаКомментарии    РазмерПиры
2018-07-28 U Лето (2018) WEB-DLRip | iTunes 1 К 1.46 GB ↑ 320 ↓ 176

Показать еще раздачи по запросу лето:
2018-07-31 U Лето (2018) WEB-DLRip от Scarabey | iTunes 795.99 MB ↑ 66 ↓ 19
2018-07-30 U Лето (2018) WEB-DLRip от Generalfilm | КПК | iTunes 488.30 MB ↑ 27 ↓ 8
2018-07-30 U Лето (2018) WEB-DLRip от Scarabey | iTunes 1К1.45 GB ↑ 177 ↓ 40
2018-07-29 U Лето (2018) WEB-DLRip от GeneralFilm | iTunes 746.78 MB ↑ 162 ↓ 50
2018-07-29 U Лето (2018) WEB-DLRip-AVC от ExKinoRay | iTunes 1.45 GB ↑ 143 ↓ 86
2018-07-29 U Лето (2018) WEB-DLRip от GeneralFilm | iTunes 1.46 GB ↑ 86 ↓ 57
2018-07-29 U Лето (2018) WEB-DL 1080p | iTunes 4.24 GB ↑ 707 ↓ 236

Отзывы
Antiteza
Черно-белое Кино ?

Зарегистрируйтесь чтобы добавить комментарий.
Обратная связь
Copyleft ©