↑↓Torrent.by
Поиск
Логин: Регистрация
Пароль: Восстановить пароль
Загрузка...

Торжественный парад ко Дню Военно-морского флота РФ 2018. Полная версия (2018) HDTV 1080i

Скачать torzhestvennyy-parad-ko-dnyu-voenno-morskogo-flota-rf-2018-polnaya-versiya-hdtv-1080i.torrent
U Магнитная ссылка Размер: 5.89 GB Раздают: 67 Качают: 44 Добавлен: 2018-07-30 07:04:29
Торжественный парад ко Дню Военно-морского флота РФ 2018. Полная версия (2018) HDTV 1080i

Название: Торжественный парад ко Дню Военно-морского флота РФ 2018. Полная версия
Год выхода: 2018
Жанр: Документальный, Флот

О фильме:
Первый канал представляет трансляцию Торжественного парада ко Дню Военно-морского флота РФ, который состоялся в Санкт-Петербурге и в Кронштадте. В параде приняли участие морская авиация и более 40 кораблей и подводных лодок, в том числе такие новейшие образцы, как фрегат «Адмирал Горшков», который еще только проходит испытания, а также недавно вставший на боевое дежурство большой десантный корабль «Иван Грен». Всего в параде было задействовано около четырех тысяч военнослужащих всех флотов и Каспийской флотилии.

Страна: Россия
Студия: ЗАО «Телекомпания „Останкино“
Продолжительность: 01:27:45
Перевод: Не требуется

Файл
Кодек: H.264 / MP2, AC3
Качество: HDTV 1080i
Видео: AVC/H.264, 1920x1080, ~8545 Kbps, 25,00 fps, 0.165 bit/pixel
Звук:
Аудио #1: MP2, 48 kHz, 2 ch, 224 kbps
Аудио #2: АС3, 48 kHz, 6 ch, 384 kbps
Субтитры: Русские, телетекст
[+] MI
Общее
Идентификатор                            : 16 (0x10)
Полное имя                               : Торжественный парад к Дню Военно-морского флота РФ_HD_Full.ts
Формат                                   : MPEG-TS
Размер файла                             : 5,89 Гбайт
Продолжительность                        : 1 ч. 27 м.
Режим общего битрейта                    : Переменный
Общий поток                              : 9636 Кбит/сек

Видео
Идентификатор                            : 1902 (0x76E)
Идентификатор меню                       : 92 (0x5C)
Формат                                   : AVC
Формат/Информация                        : Advanced Video Codec
Профиль формата                          : High@L4
Настройки формата                        : CABAC / 3 Ref Frames
Параметр CABAC формата                   : Да
Параметр RefFrames формата               : 3 кадра
Идентификатор кодека                     : 27
Продолжительность                        : 1 ч. 27 м.
Битрейт                                  : 8545 Кбит/сек
Ширина                                   : 1920 пикселей
Высота                                   : 1080 пикселей
Соотношение сторон                       : 16:9
Частота кадров                           : 25,000 кадров/сек
Стандарт вещания                         : PAL
Цветовое пространство                    : YUV
Субдискретизация насыщенности            : 4:2:0
Битовая глубина                          : 8 бит
Тип развёртки                            : Чересстрочная
Метод сохранения типа развёртки          : Раздельные поля
Порядок развёртки                        : Верхнее поле первое
Бит/(Пиксели*Кадры)                      : 0.165
Размер потока                            : 5,22 Гбайт (89%)
Цветовой диапазон                        : Limited
Основные цвета                           : BT.709
Характеристики трансфера                 : BT.709
Коэффициенты матрицы                     : BT.709

Аудио #1
Идентификатор                            : 2902 (0xB56)
Идентификатор меню                       : 92 (0x5C)
Формат                                   : MPEG Audio
Версия формата                           : Version 1
Профиль формата                          : Layer 2
Идентификатор кодека                     : 4
Продолжительность                        : 1 ч. 27 м.
Вид битрейта                             : Постоянный
Битрейт                                  : 224 Кбит/сек
Каналы                                   : 2 канала
Частота                                  : 48,0 КГц
Метод сжатия                             : С потерями
Задержка видео                           : 92 мс.
Размер потока                            : 140 Мбайт (2%)
Язык                                     : std
Язык, дополнительно                      : Clean effects

Аудио #2
Идентификатор                            : 3902 (0xF3E)
Идентификатор меню                       : 92 (0x5C)
Формат                                   : AC-3
Формат/Информация                        : Audio Coding 3
Параметр Endianness формата              : Big
Идентификатор кодека                     : 6
Продолжительность                        : 1 ч. 27 м.
Вид битрейта                             : Постоянный
Битрейт                                  : 384 Кбит/сек
Каналы                                   : 6 каналов
Расположение каналов                     : Front: L C R, Side: L R, LFE
Частота                                  : 48,0 КГц
Частота кадров                           : 31,250 кадров/сек (1536 SPF)
Битовая глубина                          : 16 бит
Метод сжатия                             : С потерями
Задержка видео                           : 2 мс.
Размер потока                            : 240 Мбайт (4%)
Язык                                     : std
Язык, дополнительно                      : Clean effects
ServiceKind/String                       : Complete Main

Прочее #1
Идентификатор                            : 33 (0x21)-100
Идентификатор меню                       : 92 (0x5C)
Формат                                   : Teletext

Прочее #2
Идентификатор                            : 33 (0x21)-888
Идентификатор меню                       : 92 (0x5C)
Формат                                   : Teletext
Язык, дополнительно                      : Additional information page



Скриншоты:
[+] Всего файлов в раздаче - 1:
Торжественный парад к Дню Военно-морского флота РФ_HD_Full.ts5.89 GB

Текущая раздача:
ДатаКомментарии    РазмерПиры
2018-07-30 U Торжественный парад ко Дню Военно-морского флота РФ 2018. Полная версия (2018) HDTV 1080i 5.89 GB ↑ 67 ↓ 44

Похожие раздачи по запросу - торжественный:
2017-07-31 U Торжественный парад ко Дню Военно-морского флота РФ. Санкт-Петербург (2017) HDTV 1080i от GeneralFilm 6.07 GB ↑ 244 ↓ 25
2017-07-31 U Торжественный парад ко Дню Военно-морского флота РФ. Санкт-Петербург (2017) HDTVRip от GeneralFilm 1.22 GB ↑ 190 ↓ 17
2017-07-30 U Торжественный парад к Дню Военно-морского флота РФ (Санкт-Петербург) (2017) HDTVRip 720p от GeneralFilm 2.14 GB ↑ 211 ↓ 58
2017-07-30 U Торжественный парад к Дню Военно-морского флота РФ (Санкт-Петербург) (2017) HDTVRip от GeneralFilm 1.27 GB ↑ 317 ↓ 63
2017-07-30 U Торжественный парад к Дню Военно-морского флота РФ (Санкт-Петербург) (2017) HDTV 1080i от GeneralFilm 6.19 GB ↑ 244 ↓ 133
2014-02-05 U Торжественный финал / Grand Piano (2013) WEB-DLRip | L1 1.40 GB ↑ 63 ↓ 154

Отзывы
Зарегистрируйтесь чтобы добавить комментарий.
Обратная связь
Copyleft ©