↑↓Torrent.by
Поиск
Логин: Регистрация
Пароль: Восстановить пароль
Загрузка...

Не в себе / Unsane (2018) BDRip-AVC от OlLanDGroup | D, P | Лицензия

Скачать ne-v-sebe-unsane-2018-bdrip-avc-ot-ollandgroup-d-p-licenziya.torrent
U Магнитная ссылка Размер: 2.45 GB Раздают: 48 Качают: 9 Добавлен: 2018-07-30 07:04:42
Не в себе / Unsane (2018) BDRip-AVC от OlLanDGroup | D, P | Лицензия

Не в себе / Unsane
«Она или не она?»

Год выпуска: 2018
Страна: США
Производство: Extension 765, New Regency Pictures
Жанр:  Ужасы, триллер

Режиссёр: Стивен Содерберг
В ролях:  Джошуа Леонард, Клер Фой, Сара Стайлс, Марк Кадиш, Эми Ирвинг, Колин Вуделл, Мира Лукреция Тейлор, Линда Моз, Зак Черри, Полли МакКи

Перевод: Дублированный (Лицензия), Профессиональный (многоголосый, закадровый) | HDrezka Studio
Субтитры: Русские, Английские
Реклама: Отсутствует

Описание: Девушка покидает родной город, чтобы сбежать от проблемного прошлого и найти новую работу. Но когда она не по своей воле оказывается в психиатрическом учреждении, ей приходится столкнуться со своим самым большим страхом. Но реален ли он, или это - просто плод ее воображения? Героине кажется, что никто не верит ей, а власти не могут или не хотят помочь, поэтому она должна в одиночку противостоять своим страхам.

Качество: BDRip-AVC
Продолжительность: 01:38:12

Формат: MKV
Видео кодек: MPEG-4 AVC
Аудио кодек: AC3
Видео: 912x584 (2.40:1), 23,976 fps, x264 ~2 294 kbps avg, 0.180 bit/pixel
Аудио #1: 48 kHz, AC3 Dolby Digital, 3/2 (L,C,R,l,r) + LFE ch, ~448.00 kbps avg | RUS (Лицензия)
Аудио #2: 48 kHz, AC3 Dolby Digital, 2 (L,R) ch, ~384.00 kbps avg | RUS (HDRezka)
Аудио #3: 48 kHz, AC3 Dolby Digital, 3/2 (L,C,R,l,r) + LFE ch, ~448.00 kbps avg | ENG

Дата премьеры (мир): 21 февраля 2018
Дата премьеры (РФ): 29 марта 2018, «Двадцатый Век Фокс СНГ»

Релиз: Rip by:


[+] MediaInfo

Общее
Уникальный идентификатор                 : 246079462739183433949372772765494281961 (0xB9212E3BB945B3CF9E628A694E8E06E9)
Полное имя                               : D:ЗагрузкиUnsane.2018.BDRip(AVC).OlLanDGroup.mkv
Формат                                   : Matroska
Версия формата                           : Version 4 / Version 2
Размер файла                             : 2,45 Гбайт
Продолжительность                        : 1 ч. 38 м.
Общий поток                              : 3577 Кбит/сек
Название фильма                          : Unsane.2018   #TorpedoUK#
Дата кодирования                         : UTC 2018-07-29 07:57:13
Программа кодирования                    : mkvmerge v6.5.0 ('Isn't she lovely') built on Oct 20 2013 12:50:05
Библиотека кодирования                   : libebml v1.3.0 + libmatroska v1.4.1

Видео
Идентификатор                            : 1
Формат                                   : AVC
Формат/Информация                        : Advanced Video Codec
Профиль формата                          : High@L4.1
Настройки формата                        : CABAC / 10 Ref Frames
Параметр CABAC формата                   : Да
Параметр ReFrames формата                : 10 кадров
Идентификатор кодека                     : V_MPEG4/ISO/AVC
Продолжительность                        : 1 ч. 38 м.
Битрейт                                  : 2294 Кбит/сек
Ширина                                   : 912 пикселей
Высота                                   : 584 пикселя
Соотношение сторон                       : 16:10
Режим частоты кадров                     : Постоянный
Частота кадров                           : 23,976 (24000/1001) кадра/сек
Цветовое пространство                    : YUV
Субдискретизация насыщенности            : 4:2:0
Битовая глубина                          : 8 бит
Тип развёртки                            : Прогрессивная
Бит/(Пиксели*Кадры)                      : 0.180
Размер потока                            : 1,53 Гбайт (62%)
Библиотека кодирования                   : x264 core 146 r2538 121396c
Настройки программы                      : cabac=1 / ref=10 / deblock=1:-2:-3 / analyse=0x3:0x133 / me=umh / subme=11 / psy=1 / psy_rd=0.97:0.06 / mixed_ref=1 / me_range=48 / chroma_me=1 / trellis=2 / 8x8dct=1 / cqm=0 / deadzone=21,11 / fast_pskip=1 / chroma_qp_offset=-3 / threads=6 / lookahead_threads=1 / sliced_threads=0 / nr=0 / decimate=1 / interlaced=0 / bluray_compat=0 / constrained_intra=0 / bframes=10 / b_pyramid=2 / b_adapt=2 / b_bias=0 / direct=3 / weightb=1 / open_gop=0 / weightp=2 / keyint=240 / keyint_min=23 / scenecut=40 / intra_refresh=0 / rc_lookahead=40 / rc=2pass / mbtree=0 / bitrate=2294 / ratetol=1.0 / qcomp=0.60 / qpmin=0 / qpmax=69 / qpstep=4 / cplxblur=20.0 / qblur=0.5 / vbv_maxrate=50000 / vbv_bufsize=62500 / nal_hrd=none / filler=0 / ip_ratio=1.40 / pb_ratio=1.30 / aq=1:1.00
Язык                                     : English
Default                                  : Да
Forced                                   : Нет

Аудио #1
Идентификатор                            : 2
Формат                                   : AC-3
Формат/Информация                        : Audio Coding 3
Идентификатор кодека                     : A_AC3
Продолжительность                        : 1 ч. 38 м.
Вид битрейта                             : Постоянный
Битрейт                                  : 448 Кбит/сек
Каналы                                   : 6 каналов
Расположение каналов                     : Front: L C R, Side: L R, LFE
Частота                                  : 48,0 КГц
Частота кадров                           : 31,250 кадров/сек (1536 SPF)
Битовая глубина                          : 16 бит
Метод сжатия                             : С потерями
Размер потока                            : 315 Мбайт (13%)
Заголовок                                : Лицензия
Язык                                     : Russian
Service kind                             : Complete Main
Default                                  : Да
Forced                                   : Нет

Аудио #2
Идентификатор                            : 3
Формат                                   : AC-3
Формат/Информация                        : Audio Coding 3
Идентификатор кодека                     : A_AC3
Продолжительность                        : 1 ч. 38 м.
Вид битрейта                             : Постоянный
Битрейт                                  : 384 Кбит/сек
Каналы                                   : 2 канала
Расположение каналов                     : Front: L R
Частота                                  : 48,0 КГц
Частота кадров                           : 31,250 кадров/сек (1536 SPF)
Битовая глубина                          : 16 бит
Метод сжатия                             : С потерями
Размер потока                            : 270 Мбайт (11%)
Заголовок                                : [HDRezka Studio]
Язык                                     : Russian
Service kind                             : Complete Main
Default                                  : Нет
Forced                                   : Нет

Аудио #3
Идентификатор                            : 4
Формат                                   : AC-3
Формат/Информация                        : Audio Coding 3
Идентификатор кодека                     : A_AC3
Продолжительность                        : 1 ч. 38 м.
Вид битрейта                             : Постоянный
Битрейт                                  : 448 Кбит/сек
Каналы                                   : 6 каналов
Расположение каналов                     : Front: L C R, Side: L R, LFE
Частота                                  : 48,0 КГц
Частота кадров                           : 31,250 кадров/сек (1536 SPF)
Битовая глубина                          : 16 бит
Метод сжатия                             : С потерями
Размер потока                            : 315 Мбайт (13%)
Заголовок                                : Original
Язык                                     : English
Service kind                             : Complete Main
Default                                  : Нет
Forced                                   : Нет

Текст #1
Идентификатор                            : 5
Формат                                   : UTF-8
Идентификатор кодека                     : S_TEXT/UTF8
Идентификатор кодека/Информация          : UTF-8 Plain Text
Заголовок                                : Full
Язык                                     : Russian
Default                                  : Нет
Forced                                   : Нет

Текст #2
Идентификатор                            : 6
Формат                                   : UTF-8
Идентификатор кодека                     : S_TEXT/UTF8
Идентификатор кодека/Информация          : UTF-8 Plain Text
Заголовок                                : Full
Язык                                     : English
Default                                  : Нет
Forced                                   : Нет

Текст #3
Идентификатор                            : 7
Формат                                   : UTF-8
Идентификатор кодека                     : S_TEXT/UTF8
Идентификатор кодека/Информация          : UTF-8 Plain Text
Заголовок                                : SDH
Язык                                     : English
Default                                  : Нет
Forced                                   : Нет

Меню
00:00:00.000                             : en:Chapter 1
00:05:40.256                             : en:Chapter 2
00:10:21.912                             : en:Chapter 3
00:14:24.697                             : en:Chapter 4
00:19:26.331                             : en:Chapter 5
00:24:46.234                             : en:Chapter 6
00:29:10.165                             : en:Chapter 7
00:36:35.401                             : en:Chapter 8
00:40:25.089                             : en:Chapter 9
00:45:23.595                             : en:Chapter 10
00:50:14.803                             : en:Chapter 11
00:56:12.285                             : en:Chapter 12
00:59:06.834                             : en:Chapter 13
01:04:44.463                             : en:Chapter 14
01:07:30.046                             : en:Chapter 15
01:15:37.449                             : en:Chapter 16
01:23:25.333                             : en:Chapter 17
01:26:39.652                             : en:Chapter 18
01:30:23.167                             : en:Chapter 19
01:35:08.411                             : en:Chapter 20




Скриншоты:
[+] Всего файлов в раздаче - 1:
Unsane.2018.BDRip(AVC).OlLanDGroup.mkv2.45 GB

Текущая раздача:
ДатаКомментарии    РазмерПиры
2018-07-30 U Не в себе / Unsane (2018) BDRip-AVC от OlLanDGroup | D, P | Лицензия 2.45 GB ↑ 48 ↓ 9

Показать еще раздачи по запросу себе:
2018-08-04 U Сам себе мастер №04 (2018) PDF 20.90 MB ↑ 77 ↓ 14
2018-08-01 U Не в себе / Unsane (2018) BDRip 1080p | D, P | Лицензия 1К7.54 GB ↑ 40 ↓ 18
2018-07-30 U Не в себе / Unsane (2018) HDRip от Scarabey | Лицензия 1.49 GB ↑ 66 ↓ 8
2018-07-30 U Дипак Чопра, Кимберли Снайдер - Совершенная красота. Открой внутренний источник здоровья, уверенности в себе и привлекательности (2018) FB2 7.16 MB ↑ 105 ↓ 6
2018-07-30 U Не в себе / Unsane (2018) HDRip от MegaPeer | Лицензия 745.63 MB ↑ 34 ↓ 9
2018-07-30 U Не в себе / Unsane (2018) BDRip-AVC от HELLYWOOD | Лицензия 1.46 GB ↑ 23 ↓ 13
2018-07-30 U Не в себе / Unsane (2018) BDRip 720p | D, P | Лицензия 8.21 GB ↑ 42 ↓ 41

Отзывы
Зарегистрируйтесь чтобы добавить комментарий.
Обратная связь
Copyleft ©