↑↓Torrent.by
Поиск
Логин: Регистрация
Пароль: Восстановить пароль
Загрузка...

Смерть Супермена / The Death of Superman (2018) WEB-DLRip 1080p | Flarrow Films

Скачать smert-supermena-the-death-of-superman-2018-web-dlrip-1080p-flarrow-films.torrent
U Магнитная ссылка Размер: 3.09 GB Раздают: 28 Качают: 7 Добавлен: 2018-07-30 07:47:42
Смерть Супермена / The Death of Superman (2018) WEB-DLRip 1080p | Flarrow Films

Название: Смерть Супермена
Оригинальное название: The Death of Superman
Год выхода: 2018
Жанр: мультфильм, фантастика, боевик
Режиссеры: Jake Castorena, Сэм Лью
В ролях: Джерри О’Коннелл, Ребекка Ромейн, Рэйн Уилсон, Розарио Доусон, Нэйтан Филлион, Кристофер Горам, Мэтт Лантер, Шемар Мур, Ньямби Ньямби, Джейсон О’Мара

О фильме:
Кларк Кент подумывает о том, чтобы раскрыть возлюбленной Лоис Лэйн свой самый большой секрет — что он является Суперменом. В это же время на Землю прибывает страшное чудовище Думсдэй, обладающее невероятной силой и злобой. Все супергерои в составе Лиги справедливости с трудом сдерживают монстра, поэтому Супермену придётся отложить свои личные дела и постараться помочь товарищам победить врага.

 
Страна: США
Продолжительность: 01:20:54
Перевод: Любительский (многоголосый, закадровый) | Flarrow Films

Файл
Формат: MKV
Кодек: MPEG-4 AVC
Качество: WEB-DLRip 1080p
Видео: 1920x1078, 5155 kb/s, 23.976 FPS, 8 bits
Звук: AAC, 312 kb/s, 48.0 kHz, 2 channels
Субтитры: отсутствуют

Релиз от: Flarrow Films
Роли озвучивали: Дмитрий Савкин, Екатерина Дмитрова, Денис Кузьмичёв, Lunar Arrow, Daelit, Ron, Ofelia, AshVoice, Nogoodvoice


[+] MediaInfo

General
Unique ID                   : 163515301853787784988912439318746254039 (0x7B03E6D09B1966D581A6603FEBE84AD7)
Complete name               : D:DownloadsMoviesThe.Death.of.SupermanWEB-DLRip.1O8Op.Flarrow.Films.[free-tor].mkv
Format                      : Matroska
Format version              : Version 4 / Version 2
File size                   : 3.09 GiB
Duration                    : 1 h 20 min
Overall bit rate            : 5 470 kb/s
Movie name                  : The.Death.of.Superman.2018.1080p.WEB-DL.DD5.1.H264-FGT
Encoded date                : UTC 2018-07-09 16:56:13
Writing application         : mkvmerge v21.0.0 ('Tardigrades Will Inherit The Earth') 64-bit
Writing library             : libebml v1.3.5 + libmatroska v1.4.8
Cover                       : Yes
Attachments                 : small_cover.jpg / small_cover_land.jpg / cover.jpg / cover_land.jpg

Video
ID                          : 1
Format                      : AVC
Format/Info                 : Advanced Video Codec
Format profile              : High@L4
Format settings             : CABAC / 4 Ref Frames
Format settings, CABAC      : Yes
Format settings, ReFrames   : 4 frames
Codec ID                    : V_MPEG4/ISO/AVC
Duration                    : 1 h 20 min
Bit rate                    : 5 155 kb/s
Width                       : 1 920 pixels
Height                      : 1 078 pixels
Display aspect ratio        : 16:9
Frame rate mode             : Constant
Frame rate                  : 23.976 FPS
Color space                 : YUV
Chroma subsampling          : 4:2:0
Bit depth                   : 8 bits
Scan type                   : Progressive
Bits/(Pixel*Frame)          : 0.104
Stream size                 : 2.91 GiB (94%)
Title                       : The.Death.of.Superman.2018.1080p.WEB-DL.DD5.1.H264-FGT
Language                    : English
Default                     : Yes
Forced                      : No
Color range                 : Limited
Color primaries             : BT.709
Transfer characteristics    : BT.709
Matrix coefficients         : BT.709

Audio
ID                          : 2
Format                      : AAC
Format/Info                 : Advanced Audio Codec
Format profile              : LC
Codec ID                    : A_AAC-2
Duration                    : 1 h 20 min
Bit rate                    : 312 kb/s
Channel(s)                  : 2 channels
Channel positions           : Front: L R
Sampling rate               : 48.0 kHz
Frame rate                  : 46.875 FPS (1024 SPF)
Compression mode            : Lossy
Stream size                 : 181 MiB (6%)
Default                     : Yes
Forced                      : No



Скриншоты:
[+] Всего файлов в раздаче - 1:
The.Death.of.SupermanWEB-DLRip.1O8Op.Flarrow.Films.[free-tor].mkv3.09 GB

Текущая раздача:
ДатаКомментарии    РазмерПиры
2018-07-30 U Смерть Супермена / The Death of Superman (2018) WEB-DLRip 1080p | Flarrow Films 3.09 GB ↑ 28 ↓ 7

Показать еще раздачи по запросу смерть:
2018-09-25 U Загадки века. Смерть Сталина - отравление? (2018) SATRip 512.88 MB ↑ 55 ↓ 15
2018-09-19 U Улика из прошлого. Тайна эпидемий: смерть из пробирки (2018) SATRip 489.55 MB ↑ 56 ↓ 8
2018-07-28 U Смерть Супермена / The Death of Superman (2018) BDRip 1080p | HDrezka Studio 3.38 GB ↑ 62 ↓ 18
2018-07-12 U Смерть Супермена / The Death of Superman (2018) WEB-DLRip | HDrezka Studio 1.36 GB ↑ 108 ↓ 41
2018-07-12 U Смерть Супермена / The Death of Superman (2018) WEB-DL 1080p | HDrezka Studio 3.24 GB ↑ 114 ↓ 40
2018-07-06 U Смерть Супермена / The Death of Superman (2018) WEB-DL 1080p | ZM-SHOW 2.99 GB ↑ 477 ↓ 34
2018-07-01 U Смерть на похоронах / Death at a Funeral (2007) BDRip 720p | D 1К4.58 GB ↑ 69 ↓ 31

Отзывы
Зарегистрируйтесь чтобы добавить комментарий.
Обратная связь
Copyleft ©