↑↓Torrent.by
Поиск
Логин: Регистрация
Пароль: Восстановить пароль
Загрузка...

Сильные духом (1967) DVDRip-AVC от KORSAR

Скачать silnye-duhom-1967-dvdrip-avc-ot-korsar.torrent
U Магнитная ссылка Размер: 4.10 GB Раздают: 69 Качают: 9 Добавлен: 2018-07-31 07:18:22
Сильные духом (1967) DVDRip-AVC от KORSAR

Название: Сильные духом
Год выпуска: 1967
Жанр:  Приключения, военный
Режиссер: Виктор Георгиев
В ролях: Гунар Цилинский, Иван Переверзев, Виктория Фёдорова, Евгений Весник, Александр Галевский, Юрий Боголюбов, Люсьена Овчинникова, Даниил Нетребин, Вия Артмане, Паул Буткевич, Таисия Додина, Юрий Волков, Юрий Соломин, Андрей Файт, Пётр Соболевский, Игорь Варпа, Николай Крюков

О фильме: 18 сентября 1942 года обер-лейтенант Пауль Вильгельм Зиберт, он же — советский разведчик Николай Иванович Кузнецов, впервые появился в городе Ровно — столице оккупированной фашистами Украины. Бои шли под Воронежем и Ростовом. Немецкая артиллерия продолжала обстреливать Ленинград. Дивизии Гитлера вышли к Волге. До Победы оставалось еще 960 дней и ночей.

Выпущено: СССР, Свердловская киностудия
Продолжительность: 2 x ~ 01:26:00
Перевод: Не требуется

Файл
Качество: DVDRip-AVC
Видео: MPEG-4 AVC, 694x560@768x560, 3200 Кбит/с, 25.000 Кадр/с
Аудио: AC3, 2 ch, 192 Кбит/с
Субтитры: Нет

Релиз:
[+] MediaInfo
x264 [info]: frame I:639 Avg QP:16.56 size: 71068
x264 [info]: frame P:28176 Avg QP:19.71 size: 32831
x264 [info]: frame B:92053 Avg QP:21.25 size: 10479

======================================

Общее
Уникальный идентификатор                 : 208720924823549502240402663056786440823 (0x9D06301B1E321DF586D25661486DC277)
Полное имя                               : Сильные духом.1967.DVDRip-AVC.KORSAR.mkv
Формат                                   : Matroska
Версия формата                           : Version 2
Размер файла                             : 1,91 Гбайт
Продолжительность                        : 1 ч. 20 м.
Общий поток                              : 3396 Кбит/сек
Дата кодирования                         : UTC 2014-09-18 14:30:40
Программа кодирования                    : mkvmerge v5.2.0 ('I can't explain') built on Dec 18 2011 18:12:03
Библиотека кодирования                   : libebml v1.2.3 + libmatroska v1.3.0

Видео
Идентификатор                            : 1
Формат                                   : AVC
Формат/Информация                        : Advanced Video Codec
Профиль формата                          : High@L4.1
Параметр CABAC формата                   : Да
Параметр ReFrames формата                : 16 кадров
Идентификатор кодека                     : V_MPEG4/ISO/AVC
Продолжительность                        : 1 ч. 20 м.
Битрейт                                  : 3200 Кбит/сек
Ширина                                   : 694 пикселя
Высота                                   : 560 пикселей
Соотношение сторон                       : 1,371
Соотношение сторон в оригинале           : 1,372
Режим частоты кадров                     : Постоянный
Частота кадров                           : 25,000 кадров/сек
Цветовое пространство                    : YUV
Субдискретизация насыщенности            : 4:2:0
Битовая глубина                          : 8 бит
Тип развёртки                            : Прогрессивная
Бит/(Пиксели*Кадры)                      : 0.329
Размер потока                            : 1,77 Гбайт (92%)
Библиотека кодирования                   : x264 core 142 r2431 ac76440
Настройки программы                      : cabac=1 / ref=16 / deblock=1:-2:-2 / analyse=0x3:0x133 / me=umh / subme=10 / psy=1 / psy_rd=1.05:0.15 / mixed_ref=1 / me_range=24 / chroma_me=1 / trellis=2 / 8x8dct=1 / cqm=0 / deadzone=21,11 / fast_pskip=0 / chroma_qp_offset=-3 / threads=12 / lookahead_threads=2 / sliced_threads=0 / nr=0 / decimate=0 / interlaced=0 / bluray_compat=0 / constrained_intra=0 / bframes=9 / b_pyramid=2 / b_adapt=2 / b_bias=0 / direct=3 / weightb=1 / open_gop=0 / weightp=2 / keyint=250 / keyint_min=25 / scenecut=40 / intra_refresh=0 / rc=2pass / mbtree=0 / bitrate=3200 / ratetol=1.0 / qcomp=0.65 / qpmin=0 / qpmax=39 / qpstep=4 / cplxblur=20.0 / qblur=0.5 / ip_ratio=1.40 / pb_ratio=1.30 / aq=1:1.00
Язык                                     : English
Default                                  : Да
Forced                                   : Нет
Основные цвета                           : BT.601 PAL
Характеристики трансфера                 : BT.470 System B, BT.470 System G
Коэффициенты матрицы                     : BT.601

Аудио
Идентификатор                            : 2
Формат                                   : AC-3
Формат/Информация                        : Audio Coding 3
Расширение режима                        : CM
Параметр Endianness формата              : Big
Идентификатор кодека                     : A_AC3
Продолжительность                        : 1 ч. 20 м.
Вид битрейта                             : Постоянный
Битрейт                                  : 192 Кбит/сек
Каналы                                   : 2 канала
Расположение каналов                     : Front: L R
Частота                                  : 48,0 КГц
Битовая глубина                          : 16 бит
Метод сжатия                             : С потерями
Размер потока                            : 111 Мбайт (6%)
Язык                                     : Russian
Default                                  : Да
Forced                                   : Нет



Скриншоты:
[+] Всего файлов в раздаче - 2:
Сильные духом-2.mkv2.19 GB
Сильные духом-1.mkv1.91 GB

Отзывы
vova19
Спасибо за один из самых любимых фильмов детства! И качество вполне приличное!

Зарегистрируйтесь чтобы добавить комментарий.
Обратная связь
Copyleft ©