↑↓Torrent.by
Поиск
Логин: Регистрация
Пароль: Восстановить пароль
Загрузка...

Мэри и ведьмин цветок / Meari to majo no hana (2017) BDRip 720p | iTunes

Скачать meri-i-vedmin-cvetok-meari-to-majo-no-hana-2017-bdrip-720p-itunes.torrent
U Магнитная ссылка Размер: 5.04 GB Раздают: 34 Качают: 10 Добавлен: 2018-07-31 07:46:20
Мэри и ведьмин цветок / Meari to majo no hana (2017) BDRip 720p | iTunes

Мэри и ведьмин цветок / Meari to majo no hana

Страна: Япония
Производство: Amuse, Dentsu, Fukuoka Broadcasting, Khara Corporation, Miyagi Television Broadcasting, Walt Disney Studios Japan
Год выпуска: 2017
Жанр:  аниме, мультфильм, приключения, фэнтези
Продолжительность: 01:42:49

Режиссер: Хиромаса Ёнэбаяси
Авторы сценария: Рико Сакагути, Хиромаса Ёнэбаяси, Мэри Стюарт

Роли озвучивали: Хана Сугисаки, Рюносукэ Камики, Юки Амами, Фумиё Кохината, Хикари Мицусима, Дзиро Сато
Роли дублировали: Ольга Шорохова, Михаил Тихонов, Ольга Зубкова, Дмитрий Филимонов, Анастасия Жаркова

Описание: Скучные каникулы в глухой деревне кажутся юной Мэри сущим наказанием. Но в последнюю неделю лета всё внезапно меняется. Нечаянная находка — дивный цветок — уносит Мэри в далёкое зачарованное царство, в мир, полный невероятных приключений и завораживающих чудес. И этому миру грозит опасность! Вместе с чёрным котом, соседским мальчиком-забиякой и маленькой волшебной метлой ей предстоит пройти через рискованные испытания, спасти жителей сказочной страны, узнать, что такое настоящая дружба и понять: мечты — даже самые необыкновенные — иногда сбываются!

Перевод: Профессиональный (дублированный) | iTunes
Субтитры: нет

Качество: BDRip 720p
Формат: МКV
Видео кодек: AVC
Аудио кодек: АС3 | DTS
Видео: 1280x692 (1.85:1), 23.976 fps, MPEG-4 AVC ~4 978 kbps avg
Аудио №1: 48.0 kHz, AC3 Dolby Digital, 3/2 (L,C,R,l,r) + LFE ch, ~384 kbps | RUS / DUB
Аудио №2: 48.0 kHz, Digital Theater Systems, 3/2 (L,C,R,l,r) + LFE ch, ~1509 kbps | JAP

Дата премьеры (мир): 8 июля 2017
Дата премьеры (РФ): 1 марта 2018, «МВК»

Семпл


[+] Media Info
General
Unique ID                      : 191487423464038993556268118583815048810 (0x900F22E36580C77CBE203BD2AFCA0E6A)
Complete name                  : M3p1.i.B3dm1H.cB3t0k.2017.D.BDRip.72Op.mkv
Format                         : Matroska
Format version                 : Version 2
File size                      : 5.04 GiB
Duration                       : 1h 42mn
Overall bit rate               : 7 011 Kbps
Encoded date                   : UTC 2018-04-18 18:25:10
Writing application            : mkvmerge v8.3.0 ('Over the Horizon') 64bit
Writing library                : libebml v1.3.1 + libmatroska v1.4.2

Video
ID                             : 1
Format                         : AVC
Format/Info                    : Advanced Video Codec
Format profile                 : High@L4.1
Format settings, CABAC         : Yes
Format settings, ReFrames      : 9 frames
Codec ID                       : V_MPEG4/ISO/AVC
Duration                       : 1h 42mn
Bit rate                       : 4 978 Kbps
Width                          : 1 280 pixels
Height                         : 692 pixels
Display aspect ratio           : 1.85:1
Frame rate mode                : Constant
Frame rate                     : 23.976 fps
Color space                    : YUV
Chroma subsampling             : 4:2:0
Bit depth                      : 8 bits
Scan type                      : Progressive
Bits/(Pixel*Frame)             : 0.234
Stream size                    : 3.58 GiB (71%)
Writing library                : x264 core 148 r2744kMod b97ae06
Encoding settings              : cabac=1 / ref=9 / deblock=1:-1:-1 / analyse=0x3:0x133 / me=umh / subme=11 / psy=1 / fade_compensate=0.00 / psy_rd=0.80:0.00 / mixed_ref=1 / me_range=48 / chroma_me=1 / trellis=2 / 8x8dct=1 / cqm=0 / deadzone=21,11 / fast_pskip=0 / chroma_qp_offset=-2 / threads=12 / lookahead_threads=2 / sliced_threads=0 / nr=0 / decimate=0 / interlaced=0 / bluray_compat=0 / constrained_intra=0 / bframes=8 / b_pyramid=2 / b_adapt=2 / b_bias=0 / direct=3 / weightb=1 / open_gop=0 / weightp=2 / keyint=240 / keyint_min=2 / scenecut=40 / intra_refresh=0 / rc_lookahead=60 / rc=crf / mbtree=0 / crf=15.5000 / qcomp=0.70 / qpmin=0 / qpmax=69 / qpstep=4 / vbv_maxrate=50000 / vbv_bufsize=30000 / crf_max=0.0 / nal_hrd=none / filler=0 / ip_ratio=1.30 / pb_ratio=1.20 / aq=3:1.10
Default                        : Yes
Forced                         : No

Audio #1
ID                             : 2
Format                         : AC-3
Format/Info                    : Audio Coding 3
Mode extension                 : CM (complete main)
Format settings, Endianness    : Big
Codec ID                       : A_AC3
Duration                       : 1h 42mn
Bit rate mode                  : Constant
Bit rate                       : 384 Kbps
Channel(s)                     : 6 channels
Channel positions              : Front: L C R, Side: L R, LFE
Sampling rate                  : 48.0 KHz
Compression mode               : Lossy
Stream size                    : 282 MiB (5%)
Language                       : Russian
Default                        : Yes
Forced                         : No

Audio #2
ID                             : 3
Format                         : DTS
Format/Info                    : Digital Theater Systems
Mode                           : 16
Format settings, Endianness    : Big
Codec ID                       : A_DTS
Duration                       : 1h 42mn
Bit rate mode                  : Constant
Bit rate                       : 1 509 Kbps
Channel(s)                     : 6 channels
Channel positions              : Front: L C R, Side: L R, LFE
Sampling rate                  : 48.0 KHz
Bit depth                      : 24 bits
Compression mode               : Lossy
Stream size                    : 1.08 GiB (22%)
Language                       : Japanese
Default                        : No
Forced                         : No



Скриншоты:
[+] Всего файлов в раздаче - 1:
M3p1.i.B3dm1H.cB3t0k.2017.D.BDRip.72Op.mkv5.04 GB

Текущая раздача:
ДатаКомментарии    РазмерПиры
2018-07-31 U Мэри и ведьмин цветок / Meari to majo no hana (2017) BDRip 720p | iTunes 5.04 GB ↑ 34 ↓ 10

Показать еще раздачи по запросу мэри:
2018-05-21 U Гордая Мэри / Proud Mary (2018) BDRip от ExKinoRay | iTunes 1.42 GB ↑ 42 ↓ 16
2018-05-21 U Гордая Мэри / Proud Mary (2018) BDRip-AVC от ExKinoRay | iTunes 1.40 GB ↑ 39 ↓ 16
2018-05-21 U Гордая Мэри / Proud Mary (2018) BDRip от MegaPeer | iTunes 745.54 MB ↑ 36 ↓ 23
2018-05-21 U Гордая Мэри / Proud Mary (2018) BDRip от MegaPeer | iTunes 1.42 GB ↑ 104 ↓ 25
2018-04-07 U Гордая Мэри / Proud Mary (2018) BDRip от MegaPeer | HDrezka Studio 745.47 MB ↑ 77 ↓ 21
2018-04-07 U Гордая Мэри / Proud Mary (2018) HDRip | HDRezka Studio 1.29 GB ↑ 30 ↓ 11
2018-04-07 U Гордая Мэри / Proud Mary (2018) BDRip 720p | HDrezka Studio 4.77 GB ↑ 53 ↓ 29

Отзывы
Зарегистрируйтесь чтобы добавить комментарий.
Обратная связь
Copyleft ©