↑↓Torrent.by
Поиск
Логин: Регистрация
Пароль: Восстановить пароль
Загрузка...

Халк против... / Hulk Vs. (2009) BDRip 1080p | D

Скачать halk-protiv-hulk-vs-2009-bdrip-1080p-d.torrent
U Магнитная ссылка Размер: 2.35 GB Раздают: 69 Качают: 6 Добавлен: 2018-07-31 13:57:52
Халк против... / Hulk Vs. (2009) BDRip 1080p | D

Название: Халк против...
Оригинальное название: Hulk Vs.
Год выхода: 2009
Жанр: Фантастический боевик, мультфильм
Режиссер: Франк Паур / Frank Paur
В ролях: Марк Эчесон, Стивен Блум, Джемили Джаред, Брюс Джонсон, Том Кэйн, Грэм МакТавиш, Колин Мёрдок, Нолан Норт, Фред Татаскьор, Мэттью Вульф

О фильме:
Это короткометражный мультфильм от компании Marvel и Lionsgate, в которых рассказывается о новых похождениях невероятного Халка. В этот раз он сразится с Росомахой

Рекламы нет

Страна: США
Студия: Marvel Studios
Продолжительность: 00:37:02
Перевод: Дубляж
Релиз от: ZM-SHOW

Файл
Кодек: x.264
Качество: BDRip 1080p
Видео: 1920x1080, AVC-MPEG4 , 23.976 fps, ~6940 Kbit/s
Звук:
Аудио1: Русский AC3, 6ch 640 kbps
Аудио2: English DTS , 6ch 1536 kbps
Субтитры: Английские, Русские


[+] MediaInfo:
General

Format                         : Matroska
Format version                 : Version 1
File size                      : 2.35 GiB
Duration                       : 37 min 7 s
Overall bit rate               : 9 075 kb/s
Encoded date                   : UTC 2018-07-28 16:28:54
Writing application            : mkvmerge v2.3.0 ('Freak U') built on Sep  8 2008 18:32:16
Writing library                : libebml v0.7.7 + libmatroska v0.8.1

Video
ID                             : 1
Format                         : AVC
Format/Info                    : Advanced Video Codec
Format profile                 : High@L4
Format settings, CABAC         : Yes
Format settings, RefFrames     : 4 frames
Codec ID                       : V_MPEG4/ISO/AVC
Duration                       : 37 min 7 s
Bit rate                       : 6 940 kb/s
Width                          : 1 920 pixels
Height                         : 1 080 pixels
Display aspect ratio           : 16:9
Frame rate mode                : Constant
Frame rate                     : 23.976 FPS
Color space                    : YUV
Chroma subsampling             : 4:2:0
Bit depth                      : 8 bits
Scan type                      : Progressive
Bits/(Pixel*Frame)             : 0.140
Stream size                    : 1.75 GiB (74%)
Writing library                : x264 core 66 r1089 355c445
Encoding settings              : cabac=1 / ref=4 / deblock=1:0:0 / analyse=0x3:0x113 / me=umh / subme=7 / psy_rd=1.0:0.0 / mixed_ref=1 / me_range=16 / chroma_me=1 / trellis=1 / 8x8dct=1 / cqm=0 / deadzone=21,11 / chroma_qp_offset=-2 / threads=6 / nr=0 / decimate=1 / mbaff=0 / bframes=3 / b_pyramid=1 / b_adapt=1 / b_bias=0 / direct=1 / wpredb=1 / keyint=250 / keyint_min=25 / scenecut=40(pre) / rc=2pass / bitrate=6940 / ratetol=1.0 / qcomp=0.60 / qpmin=10 / qpmax=51 / qpstep=4 / cplxblur=20.0 / qblur=0.5 / ip_ratio=1.40 / pb_ratio=1.30 / aq=1:1.00
Language                       : English
Default                        : Yes
Forced                         : No

Audio #1
ID                             : 2
Format                         : AC-3
Format/Info                    : Audio Coding 3
Format settings, Endianness    : Big
Codec ID                       : A_AC3
Duration                       : 37 min 7 s
Bit rate mode                  : Constant
Bit rate                       : 640 kb/s
Channel(s)                     : 6 channels
Channel positions              : Front: L C R, Side: L R, LFE
Sampling rate                  : 48.0 kHz
Frame rate                     : 31.250 FPS (1536 SPF)
Bit depth                      : 16 bits
Compression mode               : Lossy
Stream size                    : 170 MiB (7%)
Title                          : zm-show
Language                       : Russian
Service kind                   : Complete Main
Default                        : Yes
Forced                         : No

Audio #2
ID                             : 3
Format                         : DTS
Format/Info                    : Digital Theater Systems
Mode                           : 16
Format settings, Endianness    : Big
Codec ID                       : A_DTS
Duration                       : 37 min 7 s
Bit rate mode                  : Constant
Bit rate                       : 1 509 kb/s
Channel(s)                     : 6 channels
Channel positions              : Front: L C R, Side: L R, LFE
Sampling rate                  : 48.0 kHz
Frame rate                     : 93.750 FPS (512 SPF)
Bit depth                      : 24 bits
Compression mode               : Lossy
Stream size                    : 401 MiB (17%)
Title                          : Original
Language                       : English
Default                        : No
Forced                         : No

Text #1
ID                             : 4
Format                         : UTF-8
Codec ID                       : S_TEXT/UTF8
Codec ID/Info                  : UTF-8 Plain Text
Language                       : English
Default                        : No
Forced                         : No

Text #2
ID                             : 5
Format                         : UTF-8
Codec ID                       : S_TEXT/UTF8
Codec ID/Info                  : UTF-8 Plain Text
Language                       : Russian
Default                        : No
Forced                         : No



Скриншоты:
[+] Всего файлов в раздаче - 1:
Hulk.vs.Wolverine.2009.1080p.dublyazh.zm-show.mkv2.35 GB

Текущая раздача:
ДатаКомментарии    РазмерПиры
2018-07-31 U Халк против... / Hulk Vs. (2009) BDRip 1080p | D 2.35 GB ↑ 69 ↓ 6

Похожие раздачи по запросу - халк:
2013-11-27 U Железный человек и Халк: Союз героев / Iron Man & Hulk: Heroes United (2013) HDRip | D 699.41 MB ↑ 242 ↓ 179
2013-11-27 U Халк / Hulk (2003) BDRip от SMALL-RiP 2К1.45 GB ↑ 128 ↓ 5
2013-11-27 U Невероятный Халк / The Incredible Hulk (2008) HDRip-AVC | Р, А 1.48 GB ↑ 193 ↓ 12
2013-11-27 U Невероятный Халк / The Incredible Hulk (2008) BDRip 1080p 6К4.37 GB ↑ 335 ↓ 65534
2013-11-27 U Невероятный Халк / The Incredible Hulk (2008) PC | Repack от R.G.Repacker`s 10К1.45 GB ↑ 196 ↓ 3
2013-10-25 U Халк И Агенты У.Д.А.Р. / Hulk And The Agents Of S.M.A.S.H. [01х01-06 из 26] (2013) WEB-DLRip 720p 4.22 GB ↑ 5 ↓ 0

Отзывы
Зарегистрируйтесь чтобы добавить комментарий.
Обратная связь
Copyleft ©