↑↓Torrent.by
Поиск
Логин: Регистрация
Пароль: Восстановить пароль
Загрузка...

Волки (2009) WEB-DLRip от R.G.Resident

Скачать volki-2009-web-dlrip-ot-r-g-resident.torrent
U Магнитная ссылка Размер: 1.46 GB Раздают: 162 Качают: 55 Добавлен: 2018-07-31 16:47:44
Волки (2009) WEB-DLRip от R.G.Resident

Название: Волки
Год выпуска: 2009
Страна: Беларусь
Жанр: драма
Перевод: Не требуется [Русский]
Продолжительность: 01:45:39
Режиссер: Александр Колбышев
В ролях: Дмитрий Ульянов (Кирилл Полетаев), Андрей Панин (Зиновий Петрович, капитан НКВД), Коля Спиридонов (Шурка), Владимир Гостюхин (Кузьмич, председатель колхоза), Тамара Миронова (Анна Захаровна), Оксана Лесная (Клавдия Ивановна), Диана Запрудская (Танька), Олег Волчек, Светлана Никифорова (Полина, жена Кирилла), Галина Кухальская (жена Кузьмича), Сергей Власов (Пырин), Анатолий Терпицкий (председатель)

Описание:
Побег арестанта Кирилла Полетаева ставит в сложную ситуацию дорогих ему людей. Каждый из них, ни на секунду не задумываясь, делает все возможное и невозможное, чтобы помочь ему, зная, что заплатит за это самую дорогую цену - свою жизнь.

 
Качество: WEB-DLRip
Формат: AVI
Видео: XviD, 704x400 (16:9), 1519 kbps, 25 fps, 0,216 bpp
Аудио: AC3 / 5.1 / 48 kHz / 448 kbps /
Семпл

Релиз:


[+] ОтчетМедиаИнфо

General
Complete name                            : F:Volki.2009.WEB-DLRip.R.G.Resident.avi
Format                                   : AVI
Format/Info                              : Audio Video Interleave
File size                                : 1.46 GiB
Duration                                 : 1 h 45 min
Overall bit rate                         : 1 977 kb/s
Writing application                      : VirtualDubModRus 1.5.10.2 (build 2542/release)
Writing library                          : VirtualDubMod build 2542/release

Video
ID                                       : 0
Format                                   : MPEG-4 Visual
Format profile                           : Advanced Simple@L5
Format settings, BVOP                    : 1
Format settings, QPel                    : No
Format settings, GMC                     : No warppoints
Format settings, Matrix                  : Custom
Codec ID                                 : XVID
Codec ID/Hint                            : XviD
Duration                                 : 1 h 45 min
Bit rate                                 : 1 520 kb/s
Width                                    : 704 pixels
Height                                   : 400 pixels
Display aspect ratio                     : 16:9
Frame rate                               : 25.000 FPS
Color space                              : YUV
Chroma subsampling                       : 4:2:0
Bit depth                                : 8 bits
Scan type                                : Progressive
Compression mode                         : Lossy
Bits/(Pixel*Frame)                       : 0.216
Stream size                              : 1.12 GiB (77%)
Writing library                          : XviD 73

Audio
ID                                       : 1
Format                                   : AC-3
Format/Info                              : Audio Coding 3
Mode extension                           : CM (complete main)
Format settings, Endianness              : Big
Codec ID                                 : 2000
Duration                                 : 1 h 45 min
Bit rate mode                            : Constant
Bit rate                                 : 448 kb/s
Channel(s)                               : 6 channels
Channel positions                        : Front: L C R, Side: L R, LFE
Sampling rate                            : 48.0 kHz
Frame rate                               : 31.250 FPS (1536 spf)
Compression mode                         : Lossy
Stream size                              : 338 MiB (23%)
Alignment                                : Split accross interleaves
Interleave, duration                     : 40  ms (1.00 video frame)
Interleave, preload duration             : 500  ms



Скриншоты:
[+] Всего файлов в раздаче - 1:
Volki.2009.WEB-DLRip.R.G.Resident.avi1.46 GB

Текущая раздача:
ДатаКомментарии    РазмерПиры
2018-07-31 U Волки (2009) WEB-DLRip от R.G.Resident 1.46 GB ↑ 162 ↓ 55

Показать еще раздачи по запросу волки:
2018-10-21 U Инран: Волчья бригада / Люди Волки: Цепные Псы Режима / Inrang (2018) WEB-DL 1080p | Sub 5.59 GB ↑ 260 ↓ 79
2017-08-29 U Волки / Wolves (2016) WEB-DLRip от MegaPeer | iTunes 746.20 MB ↑ 60 ↓ 16
2017-08-29 U Волки / Wolves (2016) WEB-DLRip от MegaPeer | iTunes 1.46 GB ↑ 33 ↓ 33
2017-08-29 U Волки / Wolves (2016) WEB-DLRip | iTunes 1.37 GB ↑ 61 ↓ 24
2017-08-29 U Волки / Wolves (2016) WEB-DL 1080р от ExKinoRay | iTunes 4.02 GB ↑ 49 ↓ 29
2017-04-26 U Волки у двери / Wolves at the Door (2016) WEB-DL 720p | L1 2.48 GB ↑ 90 ↓ 30
2017-04-26 U Волки у двери / Wolves at the Door (2016) WEB-DLRip | L1 1.31 GB ↑ 90 ↓ 61

Отзывы
Зарегистрируйтесь чтобы добавить комментарий.
Обратная связь
Copyleft ©