↑↓Torrent.by
Поиск
Логин: Регистрация
Пароль: Восстановить пароль
Загрузка...

Горячие каникулы / Swinging Safari (2018) HDRip 1080p | GreenРай Studio

Скачать goryachie-kanikuly-swinging-safari-2018-hdrip-1080p-greenray-studio.torrent
U Магнитная ссылка Размер: 7.10 GB Раздают: 58 Качают: 24 Добавлен: 2018-08-01 18:15:27
Горячие каникулы / Swinging Safari (2018) HDRip 1080p | GreenРай Studio

Год выхода: 2018
Наименование: Горячие каникулы
Оригинальное наименование: Swinging Safari
Страна: Австралия
Жанр:  драма, комедия
Режиссер постановщик: Стефан Эллиотт
В главных ролях: Гай Пирс, Кайли Миноуг, Рада Митчелл, Джулиан МакМэхон, Ашер Кедди, Джереми Симс, Аттикус Робб, Дарси Уилсон, Джек Томпсон, Оскар Бэйли

О фильме: Сексуальная революция, хиппи, глэм рок- всё это яркие, зажигательные семидесятые. 14-летний Джефф пытается найти себя в мире, который меняется быстрее, чем его гормоны, и не знает, как справиться со своим влечением к застенчивой и чувствительной девушке Мелли, живущей по соседству. Между тем, их эксцентричных родителей всё сильнее накрывает волна запретных ранее удовольствий...

Файл
Качество: HDRip 1080p
Видео данные: MKV, 1920x800 (2.40:1), 24.000 fps, 10000 Кбит/с
Аудио данные: AC3, 2 ch, 640 Кбит/с
Перевод: Любительский многоголосый (GreenРай Studio)
Продолжительность: 01:37:07

Внимание, имеется  видео и аудио реклама от спонсора показа

Релиз:


[+] Медиаинфо
General
Unique ID                                : 232941429615023801972760138226790862616 (0xAF3EE330792D5EBFA279EF67CD608F18)
Complete name                            : D:ГРИНРАЙSwinging.Safari.2017.P.BDRip.1080p.mkv
Format                                   : Matroska
Format version                           : Version 4 / Version 2
File size                                : 7.10 GiB
Duration                                 : 1 h 37 min
Overall bit rate mode                    : Constant
Overall bit rate                         : 10.5 Mb/s
Encoded date                             : UTC 2018-07-31 12:44:18
Writing application                      : mkvmerge v6.5.0 ('Isn't she lovely') built on Oct 20 2013 12:50:05
Writing library                          : libebml v1.3.0 + libmatroska v1.4.1

Video
ID                                       : 1
Format                                   : AVC
Format/Info                              : Advanced Video Codec
Format profile                           : Main@L4
Format settings                          : CABAC / 3 Ref Frames
Format settings, CABAC                   : Yes
Format settings, RefFrames               : 3 frames
Codec ID                                 : V_MPEG4/ISO/AVC
Duration                                 : 1 h 37 min
Bit rate mode                            : Constant
Bit rate                                 : 10 000 kb/s
Width                                    : 1 920 pixels
Height                                   : 800 pixels
Display aspect ratio                     : 2.40:1
Frame rate mode                          : Constant
Frame rate                               : 24.000 FPS
Standard                                 : NTSC
Color space                              : YUV
Chroma subsampling                       : 4:2:0
Bit depth                                : 8 bits
Scan type                                : Progressive
Bits/(Pixel*Frame)                       : 0.271
Stream size                              : 6.53 GiB (92%)
Language                                 : English
Default                                  : Yes
Forced                                   : No
Color range                              : Limited

Audio
ID                                       : 2
Format                                   : AC-3
Format/Info                              : Audio Coding 3
Codec ID                                 : A_AC3
Duration                                 : 1 h 37 min
Bit rate mode                            : Constant
Bit rate                                 : 640 kb/s
Channel(s)                               : 2 channels
Channel positions                        : Front: L R
Sampling rate                            : 48.0 kHz
Frame rate                               : 31.250 FPS (1536 SPF)
Bit depth                                : 16 bits
Compression mode                         : Lossy
Stream size                              : 445 MiB (6%)
Service kind                             : Complete Main
Default                                  : Yes
Forced                                   : No



Скриншоты:
[+] Всего файлов в раздаче - 1:
Swinging.Safari.2017.P.BDRip.1080p.mkv7.10 GB

Показать еще раздачи по запросу горячие:
2019-07-01 U Сборник - Самые горячие русские танцевальные треки. Soundclinic MEGAPOP Edition (2019) MP3 1.08 GB ↑ 94 ↓ 47
2019-06-22 U Сборник - Лучшие из лучших: Горячие хиты радиостанций. Часть 29 [22.06] (2019) MP3 892.44 MB ↑ 354 ↓ 122
2019-03-27 U Сборник - Лучшие из лучших: Горячие хиты радиостанций. Часть 23 (2019) MP3 889.51 MB ↑ 191 ↓ 81
2019-01-30 U VA - Не зима, просто горячие треки (2018) MP3 575.48 MB ↑ 144 ↓ 30
2018-12-27 U VA - Лучшие из лучших. Горячие хиты радиостанций. Часть 16 (2018) MP3 784.49 MB ↑ 328 ↓ 54
2018-12-09 U Сборник - Лучшие из лучших: Горячие хиты радиостанций. Часть 15 (2018) MP3 845.71 MB ↑ 376 ↓ 110
2018-11-03 U Сборник - Лучшие из лучших: Горячие хиты радиостанций часть 13 (2018) MP3 819.64 MB ↑ 365 ↓ 130

Отзывы
Зарегистрируйтесь чтобы добавить комментарий.
Обратная связь
Copyleft ©