↑↓Torrent.by
Поиск
Логин: Регистрация
Пароль: Восстановить пароль
Загрузка...

Горячие каникулы / Swinging Safari (2018) HDRip 720p | GreenРай Studio

Скачать goryachie-kanikuly-swinging-safari-2018-hdrip-720p-greenray-studio.torrent
U Магнитная ссылка Размер: 4.61 GB Раздают: 61 Качают: 31 Добавлен: 2018-08-01 18:15:38
Горячие каникулы / Swinging Safari (2018) HDRip 720p | GreenРай Studio

Год выхода: 2018
Наименование: Горячие каникулы
Оригинальное наименование: Swinging Safari
Страна: Австралия
Жанр:  драма, комедия
Режиссер постановщик: Стефан Эллиотт
В главных ролях: Гай Пирс, Кайли Миноуг, Рада Митчелл, Джулиан МакМэхон, Ашер Кедди, Джереми Симс, Аттикус Робб, Дарси Уилсон, Джек Томпсон, Оскар Бэйли

О фильме: Сексуальная революция, хиппи, глэм рок- всё это яркие, зажигательные семидесятые. 14-летний Джефф пытается найти себя в мире, который меняется быстрее, чем его гормоны, и не знает, как справиться со своим влечением к застенчивой и чувствительной девушке Мелли, живущей по соседству. Между тем, их эксцентричных родителей всё сильнее накрывает волна запретных ранее удовольствий...

Файл
Качество: HDRip 720p
Видео данные: MKV, 1280x536 (2.40:1), 24.000 fps, 6071 Кбит/с
Аудио данные: AC3, 2 ch, 640 Кбит/с
Перевод: Любительский многоголосый (GreenРай Studio)
Продолжительность: 01:37:07

Внимание, имеется  видео и аудио реклама от спонсора показа

Релиз:


[+] Медиаинфо
General
Unique ID                                : 203170811127339837951141170919032914897 (0x98D9465FAFB875579935AFD7B22E83D1)
Complete name                            : D:ГРИНРАЙSwinging.Safari.2017.P.BDRip.720p.mkv
Format                                   : Matroska
Format version                           : Version 2
File size                                : 4.61 GiB
Duration                                 : 1 h 37 min
Overall bit rate                         : 6 792 kb/s
Encoded date                             : UTC 2018-07-31 13:36:05
Writing application                      : mkvmerge v7.8.0 ('River Man') 32bit built on Apr  3 2015 12:11:22
Writing library                          : libebml v1.3.1 + libmatroska v1.4.2

Video
ID                                       : 1
Format                                   : AVC
Format/Info                              : Advanced Video Codec
Format profile                           : High@L3.1
Format settings                          : CABAC / 4 Ref Frames
Format settings, CABAC                   : Yes
Format settings, RefFrames               : 4 frames
Codec ID                                 : V_MPEG4/ISO/AVC
Duration                                 : 1 h 37 min
Bit rate                                 : 6 017 kb/s
Width                                    : 1 280 pixels
Height                                   : 536 pixels
Display aspect ratio                     : 2.40:1
Frame rate mode                          : Constant
Frame rate                               : 24.000 FPS
Color space                              : YUV
Chroma subsampling                       : 4:2:0
Bit depth                                : 8 bits
Scan type                                : Progressive
Bits/(Pixel*Frame)                       : 0.365
Stream size                              : 4.08 GiB (89%)
Writing library                          : x264 core 146 r2538 121396c
Encoding settings                        : cabac=1 / ref=1 / deblock=1:0:0 / analyse=0x3:0x113 / me=hex / subme=2 / psy=1 / psy_rd=1.00:0.00 / mixed_ref=0 / me_range=16 / chroma_me=1 / trellis=0 / 8x8dct=1 / cqm=0 / deadzone=21,11 / fast_pskip=1 / chroma_qp_offset=0 / threads=18 / lookahead_threads=4 / sliced_threads=0 / nr=0 / decimate=1 / interlaced=0 / bluray_compat=0 / constrained_intra=0 / bframes=3 / b_pyramid=2 / b_adapt=1 / b_bias=0 / direct=1 / weightb=1 / open_gop=0 / weightp=1 / keyint=250 / keyint_min=23 / scenecut=40 / intra_refresh=0 / rc_lookahead=10 / rc=crf / mbtree=1 / crf=13.7 / qcomp=0.60 / qpmin=0 / qpmax=69 / qpstep=4 / ip_ratio=1.40 / aq=1:1.00
Default                                  : Yes
Forced                                   : No

Audio
ID                                       : 2
Format                                   : AC-3
Format/Info                              : Audio Coding 3
Codec ID                                 : A_AC3
Duration                                 : 1 h 37 min
Bit rate mode                            : Constant
Bit rate                                 : 640 kb/s
Channel(s)                               : 2 channels
Channel positions                        : Front: L R
Sampling rate                            : 48.0 kHz
Frame rate                               : 31.250 FPS (1536 SPF)
Bit depth                                : 16 bits
Compression mode                         : Lossy
Stream size                              : 445 MiB (9%)
Service kind                             : Complete Main
Default                                  : Yes
Forced                                   : No



Скриншоты:
[+] Всего файлов в раздаче - 1:
Swinging.Safari.2017.P.BDRip.720p.mkv4.61 GB

Показать еще раздачи по запросу горячие:
2019-07-01 U Сборник - Самые горячие русские танцевальные треки. Soundclinic MEGAPOP Edition (2019) MP3 1.08 GB ↑ 93 ↓ 47
2019-06-22 U Сборник - Лучшие из лучших: Горячие хиты радиостанций. Часть 29 [22.06] (2019) MP3 892.44 MB ↑ 346 ↓ 119
2019-03-27 U Сборник - Лучшие из лучших: Горячие хиты радиостанций. Часть 23 (2019) MP3 889.51 MB ↑ 191 ↓ 81
2019-01-30 U VA - Не зима, просто горячие треки (2018) MP3 575.48 MB ↑ 144 ↓ 30
2018-12-27 U VA - Лучшие из лучших. Горячие хиты радиостанций. Часть 16 (2018) MP3 784.49 MB ↑ 328 ↓ 54
2018-12-09 U Сборник - Лучшие из лучших: Горячие хиты радиостанций. Часть 15 (2018) MP3 845.71 MB ↑ 376 ↓ 110
2018-11-03 U Сборник - Лучшие из лучших: Горячие хиты радиостанций часть 13 (2018) MP3 819.64 MB ↑ 365 ↓ 130

Отзывы
Зарегистрируйтесь чтобы добавить комментарий.
Обратная связь
Copyleft ©