↑↓Torrent.by
Поиск
Логин: Регистрация
Пароль: Восстановить пароль
Загрузка...

14 камер / 14 Cameras (2018) WEBRip | L2

Скачать 14-kamer-cameras-2018-webrip-l2.torrent
U Магнитная ссылка Размер: 1.30 GB Раздают: 138 Качают: 41 Добавлен: 2018-08-02 14:19:26
14 камер / 14 Cameras (2018) WEBRip | L2

Название: 14 камер
Оригинальное название: 14 Cameras
Год выхода: 2018
Жанр: Ужасы, триллер
Режиссер: Сет Фуллер, Скотт Хассион
В ролях: Коди Сэйнт Анджело, Невилл Арчамбо, Джейкоб Браун, Мелисса Кристофер, Зэк Дулин, Челси Эдмундсон, Тейт Флетчер, Джек Форсинито, Шэрон Энн Хендерсон, Джон-Пол Ховард и другие
О фильме:
Семья из четырёх человек арендует большой красивый дом для летних каникул. Цена, которую запросил владелец, была на удивление низкой, поэтому, не заподозрив подвоха, герои незамедлительно въезжают в дом. Но они даже не догадываются, что хозяин дома установил без ведома гостей несколько шпионских камер, чтобы заснять их самые интимные моменты.

Страна: США, 30 Bones Cinema, Hood River Entertainment
Продолжительность: 01:29:18
Перевод: Любительский (двухголосый закадровый) | HiWay Grope

Файл
Кодек: XviD
Качество: WEBRip
Видео: 720x304, 24 fps, ~1686 kbps, 0.32 bit/pixel
Звук:
Аудио rus: AC3, 48 kHz, 6 ch, 384 Kbps
Субтитры: отсутствуют

Реклама: присутствует

Семпл

Релиз от: HiWay Grope


[+] MediaInfo:

General
Complete name                            : D:14.Cameras.2018.WEBRip.HiWayGrope14.Cameras.2018.WEBRip.HiWayGrope.avi
Format                                   : AVI
Format/Info                              : Audio Video Interleave
File size                                : 1.30 GiB
Duration                                 : 1h 29mn
Overall bit rate                         : 2 080 Kbps
Writing application                      : VirtualDubMod 1.5.10.3 (build 2550/release)
Writing library                          : VirtualDubMod build 2550/release

Video
ID                                       : 0
Format                                   : MPEG-4 Visual
Format profile                           : Advanced Simple@L5
Format settings, BVOP                    : 1
Format settings, QPel                    : No
Format settings, GMC                     : No warppoints
Format settings, Matrix                  : Default (MPEG)
Codec ID                                 : XVID
Codec ID/Hint                            : XviD
Duration                                 : 1h 29mn
Bit rate                                 : 1 687 Kbps
Width                                    : 720 pixels
Height                                   : 304 pixels
Display aspect ratio                     : 2.35:1
Frame rate                               : 24.000 fps
Color space                              : YUV
Chroma subsampling                       : 4:2:0
Bit depth                                : 8 bits
Scan type                                : Progressive
Compression mode                         : Lossy
Bits/(Pixel*Frame)                       : 0.321
Stream size                              : 1.05 GiB (81%)
Writing library                          : XviD 73

Audio
ID                                       : 1
Format                                   : AC-3
Format/Info                              : Audio Coding 3
Mode extension                           : CM (complete main)
Format settings, Endianness              : Big
Codec ID                                 : 2000
Duration                                 : 1h 29mn
Bit rate mode                            : Constant
Bit rate                                 : 384 Kbps
Channel(s)                               : 6 channels
Channel positions                        : Front: L C R, Side: L R, LFE
Sampling rate                            : 48.0 KHz
Frame rate                               : 31.250 fps (1536 spf)
Compression mode                         : Lossy
Stream size                              : 245 MiB (18%)
Alignment                                : Split accross interleaves
Interleave, duration                     : 42 ms (1.00 video frame)
Interleave, preload duration             : 500 ms




Скриншоты:
[+] Всего файлов в раздаче - 1:
14.Cameras.2018.WEBRip.HiWayGrope.avi1.30 GB

Текущая раздача:
ДатаКомментарии    РазмерПиры
2018-08-02 U 14 камер / 14 Cameras (2018) WEBRip | L2 1.30 GB ↑ 138 ↓ 41

Похожие раздачи по запросу - камер:
2018-08-02 U 14 камер / 14 Cameras (2018) WEBRip 720p | L2 2.14 GB ↑ 32 ↓ 20

Отзывы
Зарегистрируйтесь чтобы добавить комментарий.
Обратная связь
Copyleft ©