↑↓Torrent.by
Поиск
Логин: Регистрация
Пароль: Восстановить пароль
Загрузка...

Решение о ликвидации (2018) WEB-DLRip 1080p

Скачать reshenie-o-likvidacii-2018-web-dlrip-1080p.torrent
U Магнитная ссылка Размер: 3.54 GB Раздают: 460 Качают: 431 Добавлен: 2018-08-02 16:09:15
Решение о ликвидации (2018) WEB-DLRip 1080p

Название: Решение о ликвидации
Год выхода: 2018
Жанр: Военный, боевик, драма
Страна: Россия
Перевод: Не требуется
Продолжительность: 01:32:20
Режиссер: Александр Аравин
В ролях: Игорь Петренко, Алексей Вертков, Аюб Цингиев, Алексей Шевченков, Дмитрий Парастаев, Иван Шахназаров, Дагун Омаев, Сослан Фидаров, Кирилл Краснов, Шамиль Алханов и др.

О фильме: Особое задание спецгруппы ФСБ — ликвидация одержимого террориста Шамиля Базгаева. Охота продолжается уже долго, но жестокий лидер боевиков раз за разом ускользает. Однако, когда Базгаеву удается заполучить мощное оружие для осуществления своего самого страшного теракта, у оперативников больше нет права на ошибку. Для этих спецов преодоление себя, смертельный риск и подвиг — не что-то сверхъестественное, а каждодневный тяжелый труд. Но, кажется, даже для них эта операция — за пределами возможностей…

Файл
Формат: MKV
Качество: WEB-DLRip 1080p
Видео: MPEG-4 AVC, 1920x1080, 5120 kbps, 25,000 fps
Звук: русский, AC3, 2 ch, 48 kHz, 384 kbps
Субтитры: русские (вшитые) на чеченскую речь
[+] MI
General
Уникальный идентификатор                 : 216046811428127852663009794396611904817 (0xA2891A33BB9F41C89F7AA3DE9A538531)
Полное имя                               : F:TorrentReschenie 1080p.mkv
Формат                                   : Matroska
Версия формата                           : Version 4 / Version 2
Размер файла                             : 3.54 GiB
Продолжительность                        : 1 h 32 min
Общий поток                              : 5 488 kb/s
Дата кодирования                         : UTC 2018-08-02 09:21:52
Программа кодирования                    : mkvmerge v9.5.0 ('Quiet Fire') 64bit
Библиотека кодирования                   : libebml v1.3.4 + libmatroska v1.4.5

Video
Идентификатор                            : 1
Формат                                   : AVC
Формат/Информация                        : Advanced Video Codec
Профиль формата                          : High@L4
Настройки формата                        : CABAC / 4 Ref Frames
Параметр CABAC формата                   : Yes
Параметр RefFrames формата               : 4 frames
Идентификатор кодека                     : V_MPEG4/ISO/AVC
Продолжительность                        : 1 h 32 min
Битрейт                                  : 5 120 kb/s
Ширина                                   : 1 920 pixels
Высота                                   : 1 080 pixels
Соотношение сторон                       : 16:9
Режим частоты кадров                     : Constant
Частота кадров                           : 25.000 FPS
Цветовое пространство                    : YUV
Субдискретизация насыщенности            : 4:2:0
Битовая глубина                          : 8 bits
Тип развёртки                            : Progressive
Бит/(Пиксели*Кадры)                      : 0.099
Размер потока                            : 3.29 GiB (93%)
Библиотека кодирования                   : x264 core 142
Настройки программы                      : cabac=1 / ref=3 / deblock=1:0:0 / analyse=0x3:0x113 / me=hex / subme=7 / psy=1 / psy_rd=1.00:0.00 / mixed_ref=1 / me_range=16 / chroma_me=1 / trellis=1 / 8x8dct=1 / cqm=0 / deadzone=21,11 / fast_pskip=1 / chroma_qp_offset=-2 / threads=48 / lookahead_threads=8 / sliced_threads=0 / nr=0 / decimate=1 / interlaced=0 / bluray_compat=0 / constrained_intra=0 / bframes=6 / b_pyramid=2 / b_adapt=1 / b_bias=0 / direct=1 / weightb=1 / open_gop=0 / weightp=2 / keyint=50 / keyint_min=26 / scenecut=0 / intra_refresh=0 / rc_lookahead=40 / rc=2pass / mbtree=1 / bitrate=5120 / ratetol=1.0 / qcomp=0.60 / qpmin=0 / qpmax=69 / qpstep=4 / cplxblur=20.0 / qblur=0.5 / vbv_maxrate=7680 / vbv_bufsize=20480 / nal_hrd=none / filler=0 / ip_ratio=1.40 / aq=1:1.00
Default                                  : Yes
Forced                                   : No

Audio
Идентификатор                            : 2
Формат                                   : AC-3
Формат/Информация                        : Audio Coding 3
Идентификатор кодека                     : A_AC3
Продолжительность                        : 1 h 32 min
Вид битрейта                             : Constant
Битрейт                                  : 384 kb/s
Каналы                                   : 2 channels
Расположение каналов                     : Front: L R
Частота                                  : 48.0 kHz
Частота кадров                           : 31.250 FPS (1536 SPF)
Битовая глубина                          : 16 bits
Метод сжатия                             : Lossy
Размер потока                            : 254 MiB (7%)
Язык                                     : Russian
Default                                  : Yes
Forced                                   : No




Скриншоты:
[+] Всего файлов в раздаче - 1:
Reschenie 1080p.mkv3.54 GB

Текущая раздача:
ДатаКомментарии    РазмерПиры
2018-08-02 U Решение о ликвидации (2018) WEB-DLRip 1080p 3.54 GB ↑ 460 ↓ 431

Похожие раздачи по запросу - решение:
2018-08-04 U Решение о ликвидации (2018) WEB-DLRip-AVC от GeneralFilm 2К1.46 GB ↑ 255 ↓ 113
2018-08-03 U Решение о ликвидации (2018) WEB-DLRip от Generalfilm | КПК 351.03 MB ↑ 74 ↓ 20
2018-08-03 U Решение о ликвидации (2018) WEB-DLRip от GeneralFilm 1К745.34 MB ↑ 240 ↓ 96
2018-08-02 U Решение о ликвидации (2018) WEB-DLRip-AVC 1.45 GB ↑ 240 ↓ 159
2018-08-02 U Решение о ликвидации (2018) WEB-DLRip 1К1.46 GB ↑ 487 ↓ 311
2018-03-26 U Соломоново решение [01-04 из 04] (2018) WEBRip от GeneralFilm 1.46 GB ↑ 88 ↓ 43

Отзывы
Зарегистрируйтесь чтобы добавить комментарий.
Обратная связь
Copyleft ©