↑↓Torrent.by
Поиск
Логин: Регистрация
Пароль: Восстановить пароль
Загрузка...

Решение о ликвидации (2018) WEB-DLRip

Скачать reshenie-o-likvidacii-2018-web-dlrip.torrent
U Магнитная ссылка Размер: 1.46 GB Раздают: 471 Качают: 310 Добавлен: 2018-08-02 16:09:19
Решение о ликвидации (2018) WEB-DLRip

Название: Решение о ликвидации
Год выхода: 2018
Жанр: Военный, боевик, драма
Страна: Россия
Перевод: Не требуется
Продолжительность: 01:32:20
Режиссер: Александр Аравин
В ролях: Игорь Петренко, Алексей Вертков, Аюб Цингиев, Алексей Шевченков, Дмитрий Парастаев, Иван Шахназаров, Дагун Омаев, Сослан Фидаров, Кирилл Краснов, Шамиль Алханов и др.

О фильме: Особое задание спецгруппы ФСБ — ликвидация одержимого террориста Шамиля Базгаева. Охота продолжается уже долго, но жестокий лидер боевиков раз за разом ускользает. Однако, когда Базгаеву удается заполучить мощное оружие для осуществления своего самого страшного теракта, у оперативников больше нет права на ошибку. Для этих спецов преодоление себя, смертельный риск и подвиг — не что-то сверхъестественное, а каждодневный тяжелый труд. Но, кажется, даже для них эта операция — за пределами возможностей…

Файл
Формат: AVI
Качество: WEB-DLRip
Видео: Xvid, 720x304, ~1864 kbps, 25,000 fps
Звук: русский, AC3, 2 ch, 48 kHz, 384 kbps
Субтитры: русские (вшитые) на чеченскую речь
[+] MI
General
Полное имя                               : F:TorrentReschenie.avi
Формат                                   : AVI
Формат/Информация                        : Audio Video Interleave
Размер файла                             : 1.46 GiB
Продолжительность                        : 1 h 32 min
Общий поток                              : 2 258 kb/s
Библиотека кодирования                   : VirtualDub build 35491/release

Video
Идентификатор                            : 0
Формат                                   : MPEG-4 Visual
Профиль формата                          : Advanced Simple@L5
Настройки формата                        : BVOP2 / Custom Matrix
Параметр BVOP формата                    : 2
Параметр QPel формата                    : No
Параметр GMC формата                     : No warppoints
Параметр матрицы формата                 : Custom
Идентификатор кодека                     : XVID
Идентификатор кодека/Подсказка           : XviD
Продолжительность                        : 1 h 32 min
Битрейт                                  : 1 864 kb/s
Ширина                                   : 720 pixels
Высота                                   : 304 pixels
Соотношение сторон                       : 2.35:1
Частота кадров                           : 25.000 FPS
Цветовое пространство                    : YUV
Субдискретизация насыщенности            : 4:2:0
Битовая глубина                          : 8 bits
Тип развёртки                            : Progressive
Метод сжатия                             : Lossy
Бит/(Пиксели*Кадры)                      : 0.341
Размер потока                            : 1.20 GiB (83%)
Библиотека кодирования                   : XviD 67

Audio
Идентификатор                            : 1
Формат                                   : AC-3
Формат/Информация                        : Audio Coding 3
Идентификатор кодека                     : 2000
Продолжительность                        : 1 h 32 min
Вид битрейта                             : Constant
Битрейт                                  : 384 kb/s
Каналы                                   : 2 channels
Расположение каналов                     : Front: L R
Частота                                  : 48.0 kHz
Частота кадров                           : 31.250 FPS (1536 SPF)
Битовая глубина                          : 16 bits
Метод сжатия                             : Lossy
Размер потока                            : 254 MiB (17%)
Выравнивание                             : Aligned on interleaves
Продолжительность промежутка             : 40  ms (1.00 video frame)
Время предзагрузки промежутка            : 512  ms




Скриншоты:
[+] Всего файлов в раздаче - 1:
Reschenie.avi1.46 GB

Текущая раздача:
ДатаКомментарии    РазмерПиры
2018-08-02 U Решение о ликвидации (2018) WEB-DLRip 1 К 1.46 GB ↑ 471 ↓ 310

Похожие раздачи по запросу - решение:
2018-08-04 U Решение о ликвидации (2018) WEB-DLRip-AVC от GeneralFilm 2К1.46 GB ↑ 234 ↓ 112
2018-08-03 U Решение о ликвидации (2018) WEB-DLRip от Generalfilm | КПК 351.03 MB ↑ 74 ↓ 20
2018-08-03 U Решение о ликвидации (2018) WEB-DLRip от GeneralFilm 1К745.34 MB ↑ 235 ↓ 94
2018-08-02 U Решение о ликвидации (2018) WEB-DLRip-AVC 1.45 GB ↑ 237 ↓ 159
2018-08-02 U Решение о ликвидации (2018) WEB-DLRip 1080p 3.54 GB ↑ 453 ↓ 428
2018-03-26 U Соломоново решение [01-04 из 04] (2018) WEBRip от GeneralFilm 1.46 GB ↑ 88 ↓ 43

Отзывы
artes33
Хороший фильм. Наши постепенно учатся снимать правильные боевики о современности.

Зарегистрируйтесь чтобы добавить комментарий.
Обратная связь
Copyleft ©