↑↓Torrent.by
Поиск
Логин: Регистрация
Пароль: Восстановить пароль
Загрузка...

Закат цивилизации / Extinction (2018) WEB-DLRip-AVC от OlLanDGroup | L

Скачать zakat-civilizacii-extinction-2018-web-dlrip-avc-ot-ollandgroup-l.torrent
U Магнитная ссылка Размер: 1.63 GB Раздают: 247 Качают: 49 Добавлен: 2018-08-04 08:08:39
Закат цивилизации / Extinction (2018) WEB-DLRip-AVC от OlLanDGroup | L

Закат цивилизации / Extinction
«We were not here first!»

Год выпуска: 2018
Страна: США
Производство: Good Universe, Mandeville Films, Universal Pictures
Жанр:  Фантастика, триллер

Режиссёр: Бен Янг
В ролях: Майкл Пенья, Майк Колтер, Лиззи Каплан, Израэль Бруссар, Эмма Бут, Том Райли, Лилли Аспелл, Лекс Шрэпнел, Эрика Тремблэй, Амелия Крауч

Перевод: Любительский (многоголосый, закадровый) | [MuzOboz]
Субтитры: Русские (форс., полные), Английский (полные, SDH)
Реклама: Отсутствует

Описание: Питер видит один и тот же кошмарный сон, в котором он постоянно теряет семью. Однажды сон почти сбывается, когда на Землю прибывают инопланетяне, сеющие смерть, разрушение и ужас. Пытаясь спасти семью, Питер обнаруживает в себе неожиданный источник сил.

Качество: WEB-DLRip-AVC | NETFLIX Version | Extinction.2018.1080p.NF.WEBRip.DDP5.1.x264-NTG
Продолжительность: 01:35:20

Формат: MKV
Видео кодек: MPEG-4 AVC
Аудио кодек: AC3
Видео: 1024x428 (1.85:1), 24,000 fps, x264 ~1 615 kbps avg, 0.154 bit/pixel
Аудио #1: 48 kHz, AC3 Dolby Digital, 3/2 (L,C,R,l,r) + LFE ch, ~448.00 kbps avg | RUS (MuzOboz)
Аудио #2: 48 kHz, AC3 Dolby Digital, 3/2 (L,C,R,l,r) + LFE ch, ~384.00 kbps avg | ENG

Дата премьеры (мир): 27 июля 2018
Дата премьеры (РФ):

Релиз: Rip by:


[+] MediaInfo

Общее
Уникальный идентификатор                 : 253430589804572901660754235593322860683 (0xBEA8F4C7BE2DB3F8CF0E59A85BE7108B)
Полное имя                               : F:OlLanDGroupExtinction.2018.WEB-DLRip(AVC).OlLanDGroup.mkv
Формат                                   : Matroska
Версия формата                           : Version 4 / Version 2
Размер файла                             : 1,63 Гбайт
Продолжительность                        : 1 ч. 35 м.
Общий поток                              : 2444 Кбит/сек
Название фильма                          : Extinction.2018   #TorpedoUK#
Дата кодирования                         : UTC 2018-08-03 19:11:17
Программа кодирования                    : mkvmerge v25.0.0 ('Prog Noir') 64-bit
Библиотека кодирования                   : libebml v1.3.6 + libmatroska v1.4.9
Обложка                                  : Yes
Attachments                              : cover.jpg

Видео
Идентификатор                            : 1
Формат                                   : AVC
Формат/Информация                        : Advanced Video Codec
Профиль формата                          : High@L4.1
Параметр CABAC формата                   : Да
Параметр ReFrames формата                : 10 кадров
Идентификатор кодека                     : V_MPEG4/ISO/AVC
Продолжительность                        : 1 ч. 35 м.
Битрейт                                  : 1615 Кбит/сек
Ширина                                   : 1024 пикселя
Высота                                   : 428 пикселей
Соотношение сторон                       : 2,40:1
Режим частоты кадров                     : Постоянный
Частота кадров                           : 23,976 (24000/1001) кадра/сек
Цветовое пространство                    : YUV
Субдискретизация насыщенности            : 4:2:0
Битовая глубина                          : 8 бит
Тип развёртки                            : Прогрессивная
Бит/(Пиксели*Кадры)                      : 0.154
Размер потока                            : 1,07 Гбайт (66%)
Библиотека кодирования                   : x264 core 146 r2538 121396c
Настройки программы                      : cabac=1 / ref=10 / deblock=1:-3:-3 / analyse=0x3:0x113 / me=umh / subme=11 / psy=1 / psy_rd=0.97:0.07 / mixed_ref=1 / me_range=48 / chroma_me=1 / trellis=2 / 8x8dct=1 / cqm=0 / deadzone=21,11 / fast_pskip=1 / chroma_qp_offset=-3 / threads=6 / lookahead_threads=1 / sliced_threads=0 / nr=0 / decimate=1 / interlaced=0 / bluray_compat=0 / constrained_intra=0 / bframes=10 / b_pyramid=2 / b_adapt=2 / b_bias=0 / direct=3 / weightb=1 / open_gop=0 / weightp=2 / keyint=240 / keyint_min=23 / scenecut=40 / intra_refresh=0 / rc_lookahead=40 / rc=2pass / mbtree=1 / bitrate=1615 / ratetol=1.0 / qcomp=0.60 / qpmin=0 / qpmax=69 / qpstep=4 / cplxblur=20.0 / qblur=0.5 / vbv_maxrate=50000 / vbv_bufsize=62500 / nal_hrd=none / filler=0 / ip_ratio=1.40 / aq=1:1.00
Default                                  : Да
Forced                                   : Нет

Аудио #1
Идентификатор                            : 2
Формат                                   : AC-3
Формат/Информация                        : Audio Coding 3
Расширение режима                        : CM (complete main)
Параметр Endianness формата              : Big
Идентификатор кодека                     : A_AC3
Продолжительность                        : 1 ч. 34 м.
Вид битрейта                             : Постоянный
Битрейт                                  : 448 Кбит/сек
Каналы                                   : 6 каналов
Расположение каналов                     : Front: L C R, Side: L R, LFE
Частота                                  : 48,0 КГц
Частота кадров                           : 31,250 кадров/сек (1536 spf)
Битовая глубина                          : 16 бит
Метод сжатия                             : С потерями
Размер потока                            : 304 Мбайт (18%)
Заголовок                                : MVO [MuzOboz]
Язык                                     : Russian
Default                                  : Да
Forced                                   : Нет

Аудио #2
Идентификатор                            : 3
Формат                                   : AC-3
Формат/Информация                        : Audio Coding 3
Расширение режима                        : CM (complete main)
Параметр Endianness формата              : Big
Идентификатор кодека                     : A_AC3
Продолжительность                        : 1 ч. 35 м.
Вид битрейта                             : Постоянный
Битрейт                                  : 384 Кбит/сек
Каналы                                   : 6 каналов
Расположение каналов                     : Front: L C R, Side: L R, LFE
Частота                                  : 48,0 КГц
Частота кадров                           : 31,250 кадров/сек (1536 spf)
Битовая глубина                          : 16 бит
Метод сжатия                             : С потерями
Размер потока                            : 262 Мбайт (16%)
Заголовок                                : Original
Язык                                     : English
Default                                  : Нет
Forced                                   : Нет

Текст #1
Идентификатор                            : 4
Формат                                   : UTF-8
Идентификатор кодека                     : S_TEXT/UTF8
Идентификатор кодека/Информация          : UTF-8 Plain Text
Продолжительность                        : 1 ч. 5 м.
Битрейт                                  : 0 бит/сек
Count of elements                        : 6
Размер потока                            : 179 байт (0%)
Заголовок                                : Forced
Язык                                     : Russian
Default                                  : Да
Forced                                   : Нет

Текст #2
Идентификатор                            : 5
Формат                                   : UTF-8
Идентификатор кодека                     : S_TEXT/UTF8
Идентификатор кодека/Информация          : UTF-8 Plain Text
Продолжительность                        : 1 ч. 33 м.
Битрейт                                  : 47 бит/сек
Count of elements                        : 926
Размер потока                            : 32,6 Кбайт (0%)
Заголовок                                : Full [NETFLIX]
Язык                                     : Russian
Default                                  : Нет
Forced                                   : Нет

Текст #3
Идентификатор                            : 6
Формат                                   : UTF-8
Идентификатор кодека                     : S_TEXT/UTF8
Идентификатор кодека/Информация          : UTF-8 Plain Text
Продолжительность                        : 1 ч. 27 м.
Битрейт                                  : 38 бит/сек
Count of elements                        : 926
Размер потока                            : 24,6 Кбайт (0%)
Заголовок                                : Full
Язык                                     : English
Default                                  : Нет
Forced                                   : Нет

Текст #4
Идентификатор                            : 7
Формат                                   : UTF-8
Идентификатор кодека                     : S_TEXT/UTF8
Идентификатор кодека/Информация          : UTF-8 Plain Text
Продолжительность                        : 1 ч. 32 м.
Битрейт                                  : 44 бит/сек
Count of elements                        : 1153
Размер потока                            : 30,5 Кбайт (0%)
Заголовок                                : SDH
Язык                                     : English
Default                                  : Нет
Forced                                   : Нет



Скриншоты:
[+] Всего файлов в раздаче - 1:
Extinction.2018.WEB-DLRip(AVC).OlLanDGroup.mkv1.63 GB

Текущая раздача:
ДатаКомментарии    РазмерПиры
2018-08-04 U Закат цивилизации / Extinction (2018) WEB-DLRip-AVC от OlLanDGroup | L 1.63 GB ↑ 247 ↓ 49

Показать еще раздачи по запросу закат:
2018-08-27 U Закат цивилизации / Extinction (2018) WEBRip 1080p от Ash61 | P, L 8.78 GB ↑ 49 ↓ 35
2018-08-12 U Закат цивилизации / Extinction (2018) WEB-DLRip-AVC от ExKinoRay | HDRezka Studio 744.23 MB ↑ 62 ↓ 28
2018-08-11 U Закат цивилизации / Extinction (2018) WEB-DLRip от MegaPeer | HDrezka Studio 745.45 MB ↑ 30 ↓ 18
2018-08-09 U Закат цивилизации / Extinction (2018) WEB-DLRip от Generalfilm | КПК | P 362.36 MB ↑ 46 ↓ 255
2018-08-08 U Закат цивилизации / Extinction (2018) WEB-DLRip-AVC от OlLanDGroup | P, L | HDrezka Studio 1.76 GB ↑ 152 ↓ 61
2018-08-08 U Закат цивилизации / Extinction (2018) WEB-DLRip от MegaPeer | P, L | HDrezka Studio 1.59 GB ↑ 104 ↓ 59
2018-08-08 U Закат цивилизации / Extinction (2018) WEB-DLRip от MegaPeer | L 745.45 MB ↑ 70 ↓ 20

Отзывы
Зарегистрируйтесь чтобы добавить комментарий.
Обратная связь
Copyleft ©