↑↓Torrent.by
Поиск
Логин: Регистрация
Пароль: Восстановить пароль
Загрузка...

Дыши во мгле / Dans la brume (2018) BDRip-AVC от ExKinoRay | iTunes

Скачать dyshi-vo-mgle-dans-la-brume-2018-bdrip-avc-ot-exkinoray-itunes.torrent
U Магнитная ссылка Размер: 1.72 GB Раздают: 116 Качают: 35 Добавлен: 2018-08-05 05:27:30
Дыши во мгле / Dans la brume (2018) BDRip-AVC от ExKinoRay | iTunes

Информация о фильме
Название: Дыши во мгле
Оригинальное название: Dans la brume
Год выпуска: 2018
Жанр: Фантастика, триллер, приключения
Режиссер: Дэниэл Роби
В ролях: Ромен Дюрис, Ольга Куриленко, Фантина Ардуин, Мишель Робен, Анна Гейлор, Эрья Малатье, Алексис Маненти, Морис Антони, Робин Бард

О фильме:
После внезапного землетрясения туман, убивающий все живое, окутывает Париж. Немногие из оставшихся в живых забираются за чистым воздухом на крыши зданий: без связи, воды и еды они все еще надеются на помощь. Анна и Мэттью пойдут на все, чтобы спасти свою дочь, но для этого им придется спуститься в самую гущу опасной мглы.

Страна: Франция, Канада
Студия: Quad Productions, Section9, Esprits Frappeurs
Продолжительность: 01:29:01
Перевод: Дублированный | iTunes

Формат: MKV
Качество: BDRip-AVC
Видео: MPEG-4 AVC, 1024x428 (2.40:1), 24.000 fps, ~1937 kbps avg, 0.184 bit/pixel
Аудио: Русский (48 kHz, AC3 Dolby Digital, 5/1 ch, ~384 kbps),
французский(48 kHz, AC3 Dolby Digital, 5/1 ch, ~448 kbps)

Релиз:

Автор релиза:


[+] МИ
General
Unique ID                                : 196819983080425226434765486115962454648 (0x941226604B66AE7F8C949413F0378278)
Complete name                            : D:Dans.la.brume.2018.BDRip.AVC.ExKinoRay.mkv
Format                                   : Matroska
Format version                           : Version 2
File size                                : 1.72 GiB
Duration                                 : 1 h 29 min
Overall bit rate                         : 2 770 kb/s
Movie name                               : Dans la brume 2018 from ExKinoRay
Encoded date                             : UTC 2018-08-04 20:39:00
Writing application                      : mkvmerge v5.6.0 ('Kenya Kane') built on May 27 2012 16:44:04
Writing library                          : libebml v1.2.3 + libmatroska v1.3.0

Video
ID                                       : 1
Format                                   : AVC
Format/Info                              : Advanced Video Codec
Format profile                           : High@L4.1
Format settings, CABAC                   : Yes
Format settings, ReFrames                : 11 frames
Codec ID                                 : V_MPEG4/ISO/AVC
Duration                                 : 1 h 29 min
Bit rate                                 : 1 937 kb/s
Width                                    : 1 024 pixels
Height                                   : 428 pixels
Display aspect ratio                     : 2.40:1
Frame rate mode                          : Constant
Frame rate                               : 24.000 FPS
Color space                              : YUV
Chroma subsampling                       : 4:2:0
Bit depth                                : 8 bits
Scan type                                : Progressive
Bits/(Pixel*Frame)                       : 0.184
Stream size                              : 1.17 GiB (68%)
Title                                    : Enigma
Writing library                          : x264 core 152 r2851 ba24899
Encoding settings                        : cabac=1 / ref=11 / deblock=1:-2:-2 / analyse=0x3:0x113 / me=umh / subme=10 / psy=1 / psy_rd=1.05:0.10 / mixed_ref=1 / me_range=32 / chroma_me=1 / trellis=2 / 8x8dct=1 / cqm=0 / deadzone=21,11 / fast_pskip=0 / chroma_qp_offset=-3 / threads=12 / lookahead_threads=3 / sliced_threads=0 / nr=0 / decimate=0 / interlaced=0 / bluray_compat=0 / constrained_intra=0 / bframes=14 / b_pyramid=2 / b_adapt=2 / b_bias=0 / direct=3 / weightb=1 / open_gop=0 / weightp=2 / keyint=240 / keyint_min=24 / scenecut=40 / intra_refresh=0 / rc_lookahead=40 / rc=2pass / mbtree=0 / bitrate=1937 / ratetol=1.0 / qcomp=0.60 / qpmin=0 / qpmax=51 / qpstep=4 / cplxblur=20.0 / qblur=0.5 / vbv_maxrate=50000 / vbv_bufsize=62500 / nal_hrd=none / filler=0 / ip_ratio=1.30 / pb_ratio=1.20 / aq=3:0.90
Language                                 : English
Default                                  : Yes
Forced                                   : No
Color range                              : Limited
Color primaries                          : BT.709
Transfer characteristics                 : BT.709
Matrix coefficients                      : BT.709

Audio #1
ID                                       : 2
Format                                   : AC-3
Format/Info                              : Audio Coding 3
Mode extension                           : CM (complete main)
Format settings, Endianness              : Big
Codec ID                                 : A_AC3
Duration                                 : 1 h 29 min
Bit rate mode                            : Constant
Bit rate                                 : 384 kb/s
Channel(s)                               : 6 channels
Channel positions                        : Front: L C R, Side: L R, LFE
Sampling rate                            : 48.0 kHz
Frame rate                               : 31.250 FPS (1536 spf)
Compression mode                         : Lossy
Stream size                              : 245 MiB (14%)
Title                                    : iTunes
Language                                 : Russian
Default                                  : No
Forced                                   : No

Audio #2
ID                                       : 3
Format                                   : AC-3
Format/Info                              : Audio Coding 3
Mode extension                           : CM (complete main)
Format settings, Endianness              : Big
Codec ID                                 : A_AC3
Duration                                 : 1 h 29 min
Bit rate mode                            : Constant
Bit rate                                 : 448 kb/s
Channel(s)                               : 6 channels
Channel positions                        : Front: L C R, Side: L R, LFE
Sampling rate                            : 48.0 kHz
Frame rate                               : 31.250 FPS (1536 spf)
Compression mode                         : Lossy
Stream size                              : 285 MiB (16%)
Language                                 : French
Default                                  : No
Forced                                   : No

Menu
00:00:00.000                             : en:00:00:00.000
00:09:07.667                             : en:00:09:07.667
00:14:10.208                             : en:00:14:10.208
00:20:50.167                             : en:00:20:50.167
00:32:08.667                             : en:00:32:08.667
00:40:43.417                             : en:00:40:43.417
00:50:47.875                             : en:00:50:47.875
01:03:44.750                             : en:01:03:44.750
01:11:55.750                             : en:01:11:55.750
01:23:48.083                             : en:01:23:48.083




Скриншоты:
[+] Всего файлов в раздаче - 1:
Dans.la.brume.2018.BDRip.AVC.ExKinoRay.mkv1.72 GB

Текущая раздача:
ДатаКомментарии    РазмерПиры
2018-08-05 U Дыши во мгле / Dans la brume (2018) BDRip-AVC от ExKinoRay | iTunes 1.72 GB ↑ 116 ↓ 35

Показать еще раздачи по запросу дыши:
2018-08-09 U Дыши во мгле / Dans la brume (2018) BDRip-AVC от HELLYWOOD | iTunes 2.14 GB ↑ 62 ↓ 13
2018-08-08 U Дыши во мгле / Dans la brume (2018) BDRip-AVC от HELLYWOOD | iTunes 1.42 GB ↑ 36 ↓ 21
2018-08-07 U Дыши во мгле / Dans la brume (2018) HDRip от Scarabey | iTunes 1.40 GB ↑ 61 ↓ 17
2018-08-06 U Дыши во мгле / Dans la brume (2018) HDRip-AVC | iTunes 744.13 MB ↑ 59 ↓ 26
2018-08-06 U Дыши во мгле / Dans la brume (2018) BDRip-AVC от OlLanDGroup | iTunes 1.40 GB ↑ 55 ↓ 28
2018-08-05 U Дыши во мгле / Dans la brume (2018) BDRip от MegaPeer | iTunes 745.27 MB ↑ 204 ↓ 60
2018-08-05 U Дыши во мгле / Dans la brume (2018) HDRip от Generalfilm | КПК | iTunes 336.85 MB ↑ 44 ↓ 16

Отзывы
Зарегистрируйтесь чтобы добавить комментарий.
Обратная связь
Copyleft ©