↑↓Torrent.by
Поиск
Логин: Регистрация
Пароль: Восстановить пароль
Загрузка...

Ночная смена (2018) WEB-DLRip-AVC от GeneralFilm | iTunes

Скачать nochnaya-smena-2018-web-dlrip-avc-ot-generalfilm-itunes.torrent
U Магнитная ссылка Размер: 1.40 GB Раздают: 100 Качают: 62 Добавлен: 2018-08-05 05:28:47
Ночная смена (2018) WEB-DLRip-AVC  от GeneralFilm | iTunes

Название: Ночная смена
Год выпуска: 2018
Страна: Россия
Жанр: комедия
Перевод: оригинал [iTunes]
Продолжительность: 01:31:55
Режиссер: Марюс Вайсберг
В ролях: Владимир Яглыч (Макс), Павел Деревянко (Сергей), Ксения Теплова, Наталья Бардо, Игорь Жижикин, Валентина Мазунина, Елена Валюшкина, Сергей Глушко, Эмин Агаларов, Наталья Бочкарева, Анна Михайловская, Игорь Угаров (Гена, инженер в автосалоне)

Описание:
Макс теряет работу на заводе и, чтобы прокормить семью, вынужден согласиться на неожиданное предложение бывшей одноклассницы - поработать стриптизером. Скрывая новую профессию от жены Ани, Макс попадает в массу удивительных и нелепых ситуаций и в итоге теряет доверие любимой женщины. Стремясь вернуть мир и гармонию в семью, он обращается за помощью к коллегам из стрип-клуба, что и вовсе приводит к веселому хаосу...

Мировая премьера: 6 июля 2018

Качество: WEB-DLRip-AVC
Формат: MKV
Видео: AVC, 1024x576 (16:9), 1793 kbps, 25 fps, 0,122 bpp
Аудио: русский / AC3 / 5.1 / 48 kHz / 384 kbps / ||
Навигация по главам: есть

Релиз:
[+] ОтчетМедиаИнфо

General
Unique ID                                : 203811919693571547096965985383628747510 (0x9954BF776DC8FF31BC8D88EFF9C932F6)
Complete name                            : E:Запись с твNochnaya Smena.2018.WEB-DLRip-AVC.by.White Smoke.R.G.Generalfilm.mkv
Format                                   : Matroska
Format version                           : Version 2
File size                                : 1.40 GiB
Duration                                 : 1 h 31 min
Overall bit rate                         : 2 177 kb/s
Movie name                               : Nochnaya Smena.2018.WEB-DLRip-AVC.by.White Smoke.R.G.Generalfilm.mkv
Encoded date                             : UTC 2018-08-04 13:19:42
Writing application                      : mkvmerge v7.6.0 ('Garden of Dreams') 32bit built on Feb 11 2015 00:18:47
Writing library                          : libebml v1.3.1 + libmatroska v1.4.2
Cover                                    : Yes
Attachments                              : cover.png

Video
ID                                       : 1
Format                                   : AVC
Format/Info                              : Advanced Video Codec
Format profile                           : High@L4.1
Format settings, CABAC                   : Yes
Format settings, ReFrames                : 10 frames
Codec ID                                 : V_MPEG4/ISO/AVC
Duration                                 : 1 h 31 min
Bit rate                                 : 1 793 kb/s
Width                                    : 1 024 pixels
Height                                   : 576 pixels
Display aspect ratio                     : 16:9
Frame rate mode                          : Constant
Frame rate                               : 25.000 FPS
Color space                              : YUV
Chroma subsampling                       : 4:2:0
Bit depth                                : 8 bits
Scan type                                : Progressive
Bits/(Pixel*Frame)                       : 0.122
Stream size                              : 1.12 GiB (80%)
Writing library                          : x264 core 148 r2638 7599210
Encoding settings                        : cabac=1 / ref=10 / deblock=1:-2:-1 / analyse=0x3:0x113 / me=umh / subme=11 / psy=1 / psy_rd=0.00:0.15 / mixed_ref=1 / me_range=32 / chroma_me=1 / trellis=2 / 8x8dct=1 / cqm=0 / deadzone=21,11 / fast_pskip=0 / chroma_qp_offset=-3 / threads=6 / lookahead_threads=1 / sliced_threads=0 / nr=0 / decimate=0 / interlaced=0 / bluray_compat=0 / constrained_intra=0 / bframes=10 / b_pyramid=2 / b_adapt=2 / b_bias=0 / direct=1 / weightb=1 / open_gop=0 / weightp=2 / keyint=250 / keyint_min=25 / scenecut=40 / intra_refresh=0 / rc_lookahead=40 / rc=2pass / mbtree=1 / bitrate=1793 / ratetol=1.0 / qcomp=0.65 / qpmin=0 / qpmax=69 / qpstep=4 / cplxblur=20.0 / qblur=0.5 / vbv_maxrate=50000 / vbv_bufsize=65500 / nal_hrd=none / filler=0 / ip_ratio=1.40 / aq=1:1.00
Language                                 : English
Default                                  : Yes
Forced                                   : No

Audio
ID                                       : 2
Format                                   : AC-3
Format/Info                              : Audio Coding 3
Mode extension                           : CM (complete main)
Format settings, Endianness              : Big
Codec ID                                 : A_AC3
Duration                                 : 1 h 31 min
Bit rate mode                            : Constant
Bit rate                                 : 384 kb/s
Channel(s)                               : 6 channels
Channel positions                        : Front: L C R, Side: L R, LFE
Sampling rate                            : 48.0 kHz
Frame rate                               : 31.250 FPS (1536 spf)
Compression mode                         : Lossy
Stream size                              : 252 MiB (18%)
Language                                 : Russian
Default                                  : Yes
Forced                                   : No

Menu
00:00:00.000                             : en:Глава 1
00:06:44.400                             : en:Глава 2
00:14:25.360                             : en:Глава 3
00:19:18.760                             : en:Глава 4
00:25:01.200                             : en:Глава 5
00:30:46.480                             : en:Глава 6
00:36:09.960                             : en:Глава 7
00:42:14.360                             : en:Глава 8
00:47:15.200                             : en:Глава 9
00:53:52.120                             : en:Глава 10
00:59:51.200                             : en:Глава 11
01:04:44.040                             : en:Глава 12
01:10:35.760                             : en:Глава 13
01:17:36.520                             : en:Глава 14
01:22:50.840                             : en:Глава 15



Скриншоты:
[+] Всего файлов в раздаче - 1:
Nochnaya Smena.2018.WEB-DLRip-AVC.by.White Smoke.R.G.Generalfilm.mkv1.40 GB

Текущая раздача:
ДатаКомментарии    РазмерПиры
2018-08-05 U Ночная смена (2018) WEB-DLRip-AVC от GeneralFilm | iTunes 1.40 GB ↑ 100 ↓ 62

Показать еще раздачи по запросу ночная:
2018-08-06 U Ночная смена (2018) WEB-DLRip от Scarabey | iTunes 1.44 GB ↑ 131 ↓ 91
2018-08-04 U Ночная смена (2018) WEB-DLRip от Generalfilm | КПК | iTunes 348.29 MB ↑ 116 ↓ 35
2015-08-27 U Ночная бригада / The Night Crew (2015) HDRip от torrentfilm | iTunes 744.93 MB ↑ 262 ↓ 64
2014-09-04 U Сборник - Ночная тусовка на пять с плюсом (2014) MP3 700.91 MB ↑ 162 ↓ 0
2014-03-28 U Запретная девушка / Ночная красавица / The Forbidden Girl (2013) HDRip | НТВ+ 1.37 GB ↑ 152 ↓ 96
2013-12-27 U VA - 100 Хитов: Ночная дискотека зарубежный выпуск (2013) MP3 678.93 MB ↑ 345 ↓ 152
2013-12-02 U Ночная красавица / The Forbidden Girl (2013) HDRip | L2 7К1.46 GB ↑ 113 ↓ 5

Отзывы
Зарегистрируйтесь чтобы добавить комментарий.
Обратная связь
Copyleft ©