↑↓Torrent.by
Поиск
Логин: Регистрация
Пароль: Восстановить пароль
Загрузка...

Космический пират Харлок / Space Pirate Captain Harlock (2013) HDRip-AVC от ExKinoRay | D

Скачать kosmicheskiy-pirat-harlok-space-pirate-captain-harlock-2013-hdrip-avc-ot-exkinoray-d.torrent
U Магнитная ссылка Размер: 746.08 MB Раздают: 193 Качают: 4 Добавлен: 2018-08-05 08:57:38
Космический пират Харлок / Space Pirate Captain Harlock (2013) HDRip-AVC от ExKinoRay | D

Название: Космический пират Харлок
Оригинальное название: Space Pirate Captain Harlock
Год выхода: 2013
Жанр:  Мультфильм, фантастика, боевик, приключения
Режиссер: Синдзи Арамаки / Shinji Aramaki
В ролях: Сюн Огури, Аои Ю, Джессика Бун, Аяно Фукуда, Арата Фурута, Адам Гиббс, Киёси Кобаяси, Дэвид Матранга, Харума Миура, Морикава Тосиюки
Роли дублировали: Александр Гаврилин, Екатерина Семенова, Евгения Ваган, Александр Головчанский, Александр Дзюба, Александр Новиков, Андрей Гриневич, Владимир Герасимов, Илья Хвостиков, Ирина Киреева, Константин Карасик, Олег Щербинин, Ольга Зверева

О фильме :
В будущем человечество обнаружило способ путешествовать быстрее света и построило колонии на тысячах планет. Но даже ресурсы Вселенной начинают сокращаться, поэтому пятьсот миллиардов людей начинают долгое путешествие обратно домой. Желание населить Землю перерастает в войну, пока универсальное правительство коалиции не объявляет Землю священной, и, таким образом, недоступной. В этой умирающей Вселенной космический пират, Капитан Харлок, преследующий таинственные цели, путешествует на своем очень мощном флагмане Аркадии. Молодой Яма, брат командующего флотом Ездры, проникает в экипаж Аркадии, чтобы раскрыть цели пиратского капитана.

Страна: Япония, США, Франция
Студия: Toei Animation, Marza Animation Planet
Продолжительность: 01:55:06
Перевод: Профессиональный (полное дублирование) + сабы на доп. сцены

Файл
Формат: MKV
Качество: HDRip-AVC
Видео: MPEG-4 AVC, 768x320, ~ 828 Кбит/с
Аудио:  AAC-HE, 2 ch, ~ 76 Кбит/с
Субтитры: Русские, английские


[+] MI
Общее
Уникальный идентификатор : 186475680323988390663573964238924923928 (0x8C49E8DFB69F49849AAD2D80EEA1C418)
Полное имя : D:MOVIESSpace Pirate Captain Harlock.2013.ExKinoRay.mkv
Формат : Matroska
Версия формата : Version 4 / Version 2
Размер файла : 746 Мбайт
Продолжительность : 1 ч. 55 м.
Общий поток : 906 Кбит/сек
Дата кодирования : UTC 2018-08-03 04:15:58
Программа кодирования : mkvmerge v15.0.0 ('Duel with the Devil') 64-bit
Библиотека кодирования : libebml v1.3.5 + libmatroska v1.4.5

Видео
Идентификатор : 1
Формат : AVC
Формат/Информация : Advanced Video Codec
Профиль формата : High@L4.1
Параметр CABAC формата : Да
Параметр RefFrames формата : 12 кадров
Идентификатор кодека : V_MPEG4/ISO/AVC
Продолжительность : 1 ч. 55 м.
Битрейт : 828 Кбит/сек
Ширина : 768 пикселей
Высота : 320 пикселей
Соотношение сторон : 2,40:1
Режим частоты кадров : Постоянный
Частота кадров : 23,976 (24000/1001) кадра/сек
Цветовое пространство : YUV
Субдискретизация насыщенности : 4:2:0
Битовая глубина : 8 бит
Тип развёртки : Прогрессивная
Бит/(Пиксели*Кадры) : 0.141
Размер потока : 682 Мбайт (91%)
Библиотека кодирования : x264 core 152 r2851kMod ba24899
Настройки программы : cabac=1 / ref=12 / deblock=1:-3:-3 / analyse=0x3:0x133 / me=umh / subme=10 / psy=1 / fade_compensate=0.00 / psy_rd=1.00:0.16 / mixed_ref=1 / me_range=32 / chroma_me=1 / trellis=2 / 8x8dct=1 / cqm=0 / deadzone=21,11 / fast_pskip=0 / chroma_qp_offset=-3 / threads=6 / lookahead_threads=1 / sliced_threads=0 / nr=0 / decimate=0 / interlaced=0 / bluray_compat=0 / constrained_intra=0 / bframes=11 / b_pyramid=2 / b_adapt=2 / b_bias=0 / direct=3 / weightb=1 / open_gop=0 / weightp=2 / keyint=240 / keyint_min=23 / scenecut=40 / intra_refresh=0 / rc_lookahead=40 / rc=2pass / mbtree=1 / bitrate=828 / ratetol=1.0 / qcomp=0.60 / qpmin=0 / qpmax=69 / qpstep=4 / cplxblur=20.0 / qblur=0.5 / ip_ratio=1.40 / aq=3:1.00
Default : Да
Forced : Нет

Аудио
Идентификатор : 2
Формат : AAC
Формат/Информация : Advanced Audio Codec
Профиль формата : HE-AAC / LC
Идентификатор кодека : A_AAC
Продолжительность : 1 ч. 55 м.
Битрейт : 76,0 Кбит/сек
Каналы : 2 канала
Расположение каналов : Front: L R
Частота : 48,0 КГц / 24,0 КГц
Частота кадров : 23,438 кадра/сек (1024 SPF)
Метод сжатия : С потерями
Задержка видео : 31 мс.
Размер потока : 62,6 Мбайт (8%)
Язык : Russian
Default : Да
Forced : Нет

Текст #1
Идентификатор : 3
Формат : UTF-8
Идентификатор кодека : S_TEXT/UTF8
Идентификатор кодека/Информация : UTF-8 Plain Text
Продолжительность : 1 ч. 53 м.
Битрейт : 9 бит/сек
ElementCount : 138
Размер потока : 8,32 Кбайт (0%)
Заголовок : Lakfakalle [Fors]
Язык : Russian
Default : Да
Forced : Да

Текст #2
Идентификатор : 4
Формат : UTF-8
Идентификатор кодека : S_TEXT/UTF8
Идентификатор кодека/Информация : UTF-8 Plain Text
Продолжительность : 1 ч. 53 м.
Битрейт : 72 бит/сек
ElementCount : 1118
Размер потока : 60,8 Кбайт (0%)
Заголовок : Lakfakalle
Язык : Russian
Default : Нет
Forced : Нет

Текст #3
Идентификатор : 5
Формат : ASS
Идентификатор кодека : S_TEXT/ASS
Идентификатор кодека/Информация : Advanced Sub Station Alpha
Продолжительность : 1 ч. 47 м.
Битрейт : 11 бит/сек
ElementCount : 103
Метод сжатия : Без потерь
Размер потока : 9,20 Кбайт (0%)
Заголовок : GMC & Shimizu [Fors]
Язык : Russian
Default : Нет
Forced : Нет

Текст #4
Идентификатор : 6
Формат : ASS
Идентификатор кодека : S_TEXT/ASS
Идентификатор кодека/Информация : Advanced Sub Station Alpha
Продолжительность : 1 ч. 47 м.
Битрейт : 105 бит/сек
ElementCount : 1181
Метод сжатия : Без потерь
Размер потока : 82,7 Кбайт (0%)
Заголовок : GMC & Shimizu
Язык : Russian
Default : Нет
Forced : Нет

Текст #5
Идентификатор : 7
Формат : UTF-8
Идентификатор кодека : S_TEXT/UTF8
Идентификатор кодека/Информация : UTF-8 Plain Text
Продолжительность : 1 ч. 53 м.
Битрейт : 36 бит/сек
ElementCount : 1108
Размер потока : 30,6 Кбайт (0%)
Заголовок : BD
Язык : English
Default : Нет
Forced : Нет



Скриншоты:
[+] Всего файлов в раздаче - 1:
Space Pirate Captain Harlock.2013.ExKinoRay.mkv746.08 MB

Текущая раздача:
ДатаКомментарии    РазмерПиры
2018-08-05 U Космический пират Харлок / Space Pirate Captain Harlock (2013) HDRip-AVC от ExKinoRay | D 746.08 MB ↑ 193 ↓ 4

Показать еще раздачи по запросу космический:
2017-07-17 U Космический коктейль / Space Milkshake (2012) HDTVRip 720p | L1 3.11 GB ↑ 80 ↓ 32
2017-05-18 U Космический охотник: Приключения в запретной зоне / Spacehunter: Adventures in the Forbidden Zone (1983) BDRip 720p | P, A 4.54 GB ↑ 36 ↓ 21
2017-01-16 U Космический охотник: Приключения в запретной зоне (1983) WEB-DL 720p | P, A 3.41 GB ↑ 191 ↓ 68
2016-04-10 U Космический полицейский / Space Cop (2016) HDRip | L2 1.46 GB ↑ 501 ↓ 163
2016-04-10 U Космический полицейский / Space Cop (2016) BDRip 720p | L2 4.27 GB ↑ 374 ↓ 282
2016-03-27 U Космический полицейский / Space Cop (2016) WEB-DLRip | L2 1.37 GB ↑ 844 ↓ 313
2016-02-06 U Космический дозор. Эпизод 1 / (T)Raumschiff Surprise - Periode 1 (2004) BDRip 1080p от NNNB 1К5.76 GB ↑ 129 ↓ 63

Отзывы
Зарегистрируйтесь чтобы добавить комментарий.
Обратная связь
Copyleft ©