↑↓Torrent.by
Поиск
Логин: Регистрация
Пароль: Восстановить пароль
Загрузка...

Истории призраков / Ghost Stories (2017) WEB-DL 1080p от ExKinoRay | Локализованная версия | iTunes

Скачать istorii-prizrakov-ghost-stories-2017-web-dl-1080p-ot-exkinoray-lokalizovannaya-versiya-itunes.torrent
U Магнитная ссылка Размер: 3.63 GB Раздают: 359 Качают: 444 Добавлен: 2018-08-06 20:32:49
Истории призраков / Ghost Stories (2017) WEB-DL 1080p от ExKinoRay | Локализованная версия | iTunes

Название: Истории призраков
Оригинальное название: Ghost Stories
Год выхода: 2017
Жанр: Ужасы, драма
Режиссер: Джереми Дайсон, Энди Найман
В ролях: Энди Найман, Мартин Фриман, Пол Уайтхаус, Алекс Лоутер, Пол Уоррен, Кобна Холдбрук-Смит, Николас Барнс, Луиз Аткинс, Лесли Харкорт, Эми Дойл

О фильме: Профессор психологии Гудман изучает историю трех человек, которые якобы столкнулись со сверхъестественным: ночного сторожа, подростка и бизнесмена. Скептически настроенный профессор превращается из наблюдателя в активного участника, когда получает послание с того света.

Страна: Великобритания
Студия: Warp Films, Altitude Film Entertainment, Catalyst Global Media
Продолжительность: 01:37:30
Перевод: Дублированный | iTunes

Качество: WEB-DL 1080p | Локализованный видеоряд
Видео: MPEG-4 AVC, 1920x858, 4558 Kbit/s, 24.000 fps
Звук:
Аудио #01: 48 kHz, AC3, 5.1, 384 Kbps | iTunes | RUS |
Аудио #02: 48 kHz, AC3, 5.1, 384 Kbps | Оригинал |  ENG |
Субтитры: Русские (full), английские

Релиз:

Автор релиза:


[+] MI
General
Unique ID                   : 238612519889204807272845037934452629890 (0xB3831986FD65EE86B2B192B689676182)
Complete name               : D:Video111Ghost.Stories.2018.D.WEB-DL.1080p.ExKinoRay.mkv
Format                      : Matroska
Format version              : Version 4 / Version 2
File size                   : 3.63 GiB
Duration                    : 1 h 37 min
Overall bit rate            : 5 327 kb/s
Movie name                  : Ghost Stories 2018 from ExKinoRay
Encoded date                : UTC 2018-08-06 15:54:50
Writing application         : mkvmerge v7.3.0 ('Nouages') 64bit built on Oct 22 2014 18:53:34
Writing library             : libebml v1.3.0 + libmatroska v1.4.1

Video
ID                          : 1
Format                      : AVC
Format/Info                 : Advanced Video Codec
Format profile              : High@L4
Format settings             : CABAC / 5 Ref Frames
Format settings, CABAC      : Yes
Format settings, ReFrames   : 5 frames
Codec ID                    : V_MPEG4/ISO/AVC
Duration                    : 1 h 37 min
Bit rate                    : 4 558 kb/s
Width                       : 1 920 pixels
Height                      : 858 pixels
Display aspect ratio        : 2.25:1
Frame rate mode             : Constant
Frame rate                  : 24.000 FPS
Color space                 : YUV
Chroma subsampling          : 4:2:0
Bit depth                   : 8 bits
Scan type                   : Progressive
Bits/(Pixel*Frame)          : 0.115
Stream size                 : 3.10 GiB (86%)
Language                    : English
Default                     : Yes
Forced                      : No
Color range                 : Limited
Color primaries             : BT.709
Transfer characteristics    : BT.709
Matrix coefficients         : BT.709

Audio #1
ID                          : 2
Format                      : AC-3
Format/Info                 : Audio Coding 3
Commercial name             : Dolby Digital
Codec ID                    : A_AC3
Duration                    : 1 h 37 min
Bit rate mode               : Constant
Bit rate                    : 384 kb/s
Channel(s)                  : 6 channels
Channel positions           : Front: L C R, Side: L R, LFE
Sampling rate               : 48.0 kHz
Frame rate                  : 31.250 FPS (1536 SPF)
Bit depth                   : 16 bits
Compression mode            : Lossy
Stream size                 : 268 MiB (7%)
Title                       : iTunes
Language                    : Russian
Service kind                : Complete Main
Default                     : Yes
Forced                      : Yes

Audio #2
ID                          : 3
Format                      : AC-3
Format/Info                 : Audio Coding 3
Commercial name             : Dolby Digital
Codec ID                    : A_AC3
Duration                    : 1 h 37 min
Bit rate mode               : Constant
Bit rate                    : 384 kb/s
Channel(s)                  : 6 channels
Channel positions           : Front: L C R, Side: L R, LFE
Sampling rate               : 48.0 kHz
Frame rate                  : 31.250 FPS (1536 SPF)
Bit depth                   : 16 bits
Compression mode            : Lossy
Stream size                 : 268 MiB (7%)
Title                       : Original
Language                    : English
Service kind                : Complete Main
Default                     : No
Forced                      : No

Text #1
ID                          : 4
Format                      : UTF-8
Codec ID                    : S_TEXT/UTF8
Codec ID/Info               : UTF-8 Plain Text
Duration                    : 1 h 30 min
Bit rate                    : 69 b/s
Count of elements           : 979
Stream size                 : 46.5 KiB (0%)
Title                       : Full
Language                    : Russian
Default                     : No
Forced                      : No

Text #2
ID                          : 5
Format                      : UTF-8
Codec ID                    : S_TEXT/UTF8
Codec ID/Info               : UTF-8 Plain Text
Duration                    : 1 h 30 min
Bit rate                    : 42 b/s
Count of elements           : 1003
Stream size                 : 28.2 KiB (0%)
Title                       : SDH
Language                    : English
Default                     : No
Forced                      : No

Menu
00:00:00.000                : en:Глава 1
00:07:20.166                : en:Глава 2
00:14:53.499                : en:Глава 3
00:22:06.457                : en:Глава 4
00:29:32.040                : en:Глава 5
00:36:23.164                : en:Глава 6
00:44:29.622                : en:Глава 7
00:52:08.080                : en:Глава 8
00:59:16.621                : en:Глава 9
01:05:44.579                : en:Глава 10
01:14:13.828                : en:Глава 11
01:21:36.910                : en:Глава 12
01:28:54.660                : en:Глава 13



Скриншоты:
[+] Всего файлов в раздаче - 1:
Ghost.Stories.2018.D.WEB-DL.1080p.ExKinoRay.mkv3.63 GB

Текущая раздача:
ДатаКомментарии    РазмерПиры
2018-08-06 U Истории призраков / Ghost Stories (2017) WEB-DL 1080p от ExKinoRay | Локализованная версия | iTunes 3.63 GB ↑ 359 ↓ 444

Показать еще раздачи по запросу истории:
Сегодня U Хан Соло: Звёздные Войны. Истории / Solo: A Star Wars Story (2018) HDRip от Scarabey | Локализованная версия | Лицензия 798.27 MB ↑ 47 ↓ 8
Сегодня U Хан Соло: Звёздные Войны. Истории / Solo: A Star Wars Story (2018) HDRip от Scarabey | Локализованная версия | Лицензия 2.17 GB ↑ 80 ↓ 14
Сегодня U Хан Соло: Звёздные Войны. Истории / Solo: A Star Wars Story (2018) BDRip-AVC от ExKinoRay | Локализованная версия | Лицензия 2.40 GB ↑ 88 ↓ 13
Сегодня U Хан Соло: Звёздные Войны. Истории / Solo: A Star Wars Story (2018) BDRip 720p от ExKinoRay | D | Локализованная версия | Лицензия 5.47 GB ↑ 116 ↓ 33
Вчера U Хан Соло: Звёздные Войны. Истории / Solo: A Star Wars Story (2018) BDRip от ExKinoRay | Локализованная версия | Лицензия 2.18 GB ↑ 120 ↓ 18
Вчера U Хан Соло: Звёздные войны. Истории / Solo: A Star Wars Story (2018) BDRip-AVC от HELLYWOOD | Локализованная версия | Лицензия 2.92 GB ↑ 137 ↓ 83
Вчера U Хан Соло: Звёздные Войны. Истории / Solo: A Star Wars Story (2018) BDRip 1080p от OlLanDGroup | Локализованная версия | Лицензия 7.68 GB ↑ 136 ↓ 99

Отзывы
Зарегистрируйтесь чтобы добавить комментарий.
Обратная связь
Copyleft ©