↑↓Torrent.by
Поиск
Логин: Регистрация
Пароль: Восстановить пароль
Загрузка...

Дэдпул 2 / Deadpool 2 (2018) WEB-DLRip | D | TS

Скачать dedpul-2-deadpool-2018-web-dlrip-d-ts.torrent
U Магнитная ссылка Размер: 1.50 GB Раздают: 193 Качают: 62 Добавлен: 2018-08-07 14:17:20
Дэдпул 2 / Deadpool 2 (2018) WEB-DLRip | D | TS

Название: Дэдпул 2
Оригинальное название: Deadpool 2
Год выхода: 2018
Жанр: фантастика, боевик, комедия, приключения
Режиссер: Дэвид Литч
В ролях: Райан Рейнольдс, Джош Бролин, Морена Баккарин, Зази Битц, Брианна Хилдебранд, Брэд Питт, Билл Скарсгард, ТиДжей Миллер, Терри Крюс, Роб Делани

О фильме: Единственный и неповторимый болтливый наемник — вернулся! Ещё более масштабный, ещё более разрушительный и даже ещё более голозадый, чем прежде! Когда в его жизнь врывается суперсолдат с убийственной миссией, Дэдпул вынужден задуматься о дружбе, семье и о том, что на самом деле значит быть героем, попутно надирая 50 оттенков задниц. Потому что иногда чтобы делать хорошие вещи, нужно использовать грязные приёмчики.

Страна: США
Студия: 20th Century Fox Film Corporation
Продолжительность: 01:59:29
Перевод: Профессиональный (полное дублирование) звук с TS

Файл
Кодек: XviD
Качество: WEB-DLRip
Видео: 720x304 (2.40:1), 23.976 fps, XviD MPEG-4 ~1595 kbps avg, 0.30 bit/pixel
Звук: 48 kHz, AC3 Dolby Digital, 2/0 (L,R) ch, ~192 kbps
Субтитры: Нет


[+] Инфо-файл
Общее
Полное имя                               : D:1VIDEODeadpool.2.2018.WEB-DL.avi
Формат                                   : AVI
Формат/Информация                        : Audio Video Interleave
Размер файла                             : 1,50 Гбайт
Продолжительность                        : 1 ч. 59 м.
Общий поток                              : 1796 Кбит/сек
Название фильма                          : Deadpool.2.2018.WEB-DL / Deadpool.2.2018.WEB-DL.XviD.AC3-FGT
Примечание                               : Deadpool.2.2018.WEB-DL.XviD.AC3-FGT

Видео
Идентификатор                            : 0
Формат                                   : MPEG-4 Visual
Профиль формата                          : Simple@L5
Параметр BVOP формата                    : Нет
Параметр QPel формата                    : Нет
Параметр GMC формата                     : Без точки перехода
Параметр матрицы формата                 : Default (H.263)
Идентификатор кодека                     : XVID
Идентификатор кодека/Подсказка           : XviD
Продолжительность                        : 1 ч. 59 м.
Битрейт                                  : 1595 Кбит/сек
Ширина                                   : 720 пикселей
Высота                                   : 304 пикселя
Соотношение сторон                       : 2,40:1
Частота кадров                           : 23,976 кадра/сек
Цветовое пространство                    : YUV
Субдискретизация насыщенности            : 4:2:0
Битовая глубина                          : 8 бит
Тип развёртки                            : Прогрессивная
Метод сжатия                             : С потерями
Бит/(Пиксели*Кадры)                      : 0.304
Размер потока                            : 1,33 Гбайт (89%)
Библиотека кодирования                   : Lavc58.1.100

Аудио
Идентификатор                            : 1
Формат                                   : AC-3
Формат/Информация                        : Audio Coding 3
Расширение режима                        : CM (complete main)
Параметр Endianness формата              : Big
Идентификатор кодека                     : 2000
Продолжительность                        : 1 ч. 58 м.
Вид битрейта                             : Постоянный
Битрейт                                  : 192 Кбит/сек
Каналы                                   : 2 канала
Расположение каналов                     : Front: L R
Частота                                  : 48,0 КГц
Метод сжатия                             : С потерями
Размер потока                            : 163 Мбайт (11%)
Выравнивание                             : Соединение по промежуткам
Продолжительность промежутка             : 42  мс. (1,00 видеокадр)
Время предзагрузки промежутка            : 512  мс.




Скриншоты:
[+] Всего файлов в раздаче - 1:
Deadpool.2.2018.WEB-DL.avi1.50 GB

Текущая раздача:
ДатаКомментарии    РазмерПиры
2018-08-07 U Дэдпул 2 / Deadpool 2 (2018) WEB-DLRip | D | TS 1.50 GB ↑ 193 ↓ 62

Показать еще раздачи по запросу дэдпул:
2018-09-28 U Дэдпул 2 / Deadpool 2 (2018) BDRip 720p | D, A | Расширенная версия | Лицензия 9.74 GB ↑ 36 ↓ 12
2018-09-22 U Дэдпул 2 / Deadpool 2 (2018) BDRip от ExKinoRay | Расширенная версия | A 2.18 GB ↑ 111 ↓ 27
2018-09-22 U Дэдпул 2 / Deadpool 2 (2018) BDRip 1080p | D, A | Расширенная версия 20.18 GB ↑ 43 ↓ 25
2018-09-08 U Дэдпул 2 / Deadpool 2 (2018) BDRip 720p от NNNB | 60 fps | Расширенная версия | Лицензия 8.03 GB ↑ 147 ↓ 119
2018-09-03 U Дэдпул 2 / Deadpool 2 (2018) BDRip от HQ-ViDEO | D | Расширенная версия 2.18 GB ↑ 254 ↓ 80
2018-08-23 U Дэдпул 2 / Deadpool 2 (2018) HDRip от Scarabey | Театральная версия | Лицензия 1.45 GB ↑ 107 ↓ 30
2018-08-22 U Дэдпул 2 / Deadpool 2 (2018) HDRip от MegaPeer | Расширенная версия | Лицензия 794.08 MB ↑ 73 ↓ 22

Отзывы
Зарегистрируйтесь чтобы добавить комментарий.
Обратная связь
Copyleft ©