↑↓Torrent.by
Поиск
Логин: Регистрация
Пароль: Восстановить пароль
Загрузка...

Разная ложь / Separate Lies (2005) WEB-DL 1080p от KORSAR | D, P, P2

Скачать raznaya-lozh-separate-lies-2005-web-dl-1080p-ot-korsar-d-p-p2.torrent
U Магнитная ссылка Размер: 8.91 GB Раздают: 30 Качают: 17 Добавлен: 2018-08-07 14:18:27
Разная ложь / Separate Lies (2005) WEB-DL 1080p от KORSAR | D, P, P2

Название: Разная ложь / Телохранитель по найму / У каждого своя ложь / Правда на выбор
Оригинальное название: Separate Lies
Год выпуска: 2005
Выпущено: Великобритания, Celador Films, DNA Films, FilmFour, UK Film Council
Жанр:  Триллер, драма, мелодрама
Режиссер: Джулиан Феллоуз
В ролях: Том Уилкинсон, Эмили Уотсон, Гермиона Норрис, Джон Уэрнэби, Руперт Эверетт, Риченда Кэри, Линда Бэссет, Кристин Лор, Элис О’Коннелл, Джон Невилл

О фильме: В тихом пригороде Лондона живет счастливая чета Мэннингов. Джеймс — богатый и успешный адвокат, Энн — заботливая домохозяйка. Но однажды их налаженную жизнь омрачает трагическое событие: под колесами автомобиля погибает муж их домработницы. Вскоре у Джеймса появляются подозрения, что сосед Билл Бьюл, недавно приехавший из Америки, может быть замешан в этом преступлении. Джеймс начинает собственное расследование случившегося, и вскоре выясняется, что за благополучным фасадом его семейной жизни скрывается не одна тайна…

Продолжительность: 01:24:58
Перевод: Дублированный, профессиональный многоголосый, профессиональный двухголосый
Субтитры: Английские
Навигация по главам: Есть

Файл
Качество: WEB-DL 1080p
Видео: MPEG-4 AVC, 13,9 Мбит/сек, 1920x1080, 23,976 кадра/сек
Аудио #1: AC3, 2 ch, 192 Кбит/сек | Русский, профессиональный (полное дублирование) SDI Media
Аудио #2: AC3, 2 ch, 224 Кбит/сек | Русский, профессиональный (многоголосый закадровый) 1 канал
Аудио #3: AC3, 2 ch, 192 Кбит/сек | Русский, профессиональный (двухголосый закадровый) R5
Аудио #4: EAC3, 2 ch, 224 Кбит/сек | Английский, оригинал

Сборка:


[+] Инфо-файл
Общее
Уникальный идентификатор                 : 217298783340666360253387431834928058686 (0xA37A392EDF680B9684CE4DC7B864913E)
Полное имя                               : Разная.ложь.2005.WEB-DL.1080p.mkv
Формат                                   : Matroska
Версия формата                           : Version 2
Размер файла                             : 8,91 Гбайт
Продолжительность                        : 1 ч. 24 м.
Режим общего битрейта                    : Переменный
Общий поток                              : 15,0 Мбит/сек
Дата кодирования                         : UTC 2018-08-06 02:32:50
Программа кодирования                    : mkvmerge v5.8.0 ('No Sleep / Pillow') built on Sep  2 2012 15:37:04
Библиотека кодирования                   : libebml v1.2.3 + libmatroska v1.3.0

Видео
Идентификатор                            : 1
Формат                                   : AVC
Формат/Информация                        : Advanced Video Codec
Профиль формата                          : High@L4
Настройки формата                        : CABAC / 4 Ref Frames
Параметр CABAC формата                   : Да
Параметр RefFrames формата               : 4 кадра
Идентификатор кодека                     : V_MPEG4/ISO/AVC
Продолжительность                        : 1 ч. 24 м.
Вид битрейта                             : Переменный
Битрейт                                  : 13,9 Мбит/сек
Максимальный битрейт                     : 15,0 Мбит/сек
Ширина                                   : 1920 пикселей
Высота                                   : 1080 пикселей
Соотношение сторон                       : 16:9
Режим частоты кадров                     : Постоянный
Частота кадров                           : 23,976 (24000/1001) кадра/сек
Цветовое пространство                    : YUV
Субдискретизация насыщенности            : 4:2:0
Битовая глубина                          : 8 бит
Тип развёртки                            : Прогрессивная
Бит/(Пиксели*Кадры)                      : 0.279
Размер потока                            : 8,24 Гбайт (92%)
Библиотека кодирования                   : x264 core 148 r2623 d5b2374
Настройки программы                      : cabac=1 / ref=4 / deblock=1:-1:-1 / analyse=0x3:0x133 / me=umh / subme=9 / psy=1 / psy_rd=1.00:0.15 / mixed_ref=1 / me_range=24 / chroma_me=1 / trellis=2 / 8x8dct=1 / cqm=0 / deadzone=21,11 / fast_pskip=1 / chroma_qp_offset=-3 / threads=34 / lookahead_threads=5 / sliced_threads=0 / nr=150 / decimate=1 / interlaced=0 / bluray_compat=0 / constrained_intra=0 / bframes=8 / b_pyramid=2 / b_adapt=2 / b_bias=0 / direct=3 / weightb=1 / open_gop=0 / weightp=2 / keyint=120 / keyint_min=61 / scenecut=0 / intra_refresh=0 / rc_lookahead=120 / rc=crf / mbtree=1 / crf=18.0 / qcomp=0.60 / qpmin=0 / qpmax=69 / qpstep=4 / vbv_maxrate=15000 / vbv_bufsize=31250 / crf_max=0.0 / nal_hrd=vbr / filler=0 / ip_ratio=1.40 / aq=3:1.00
Язык                                     : English
По умолчанию                             : Да
Принудительно                            : Нет
Цветовой диапазон                        : Limited
Основные цвета                           : BT.709
Характеристики трансфера                 : BT.709
Коэффициенты матрицы                     : BT.709

Аудио #1
Идентификатор                            : 2
Формат                                   : AC-3
Формат/Информация                        : Audio Coding 3
Идентификатор кодека                     : A_AC3
Продолжительность                        : 1 ч. 24 м.
Вид битрейта                             : Постоянный
Битрейт                                  : 192 Кбит/сек
Каналы                                   : 2 канала
Расположение каналов                     : Front: L R
Частота                                  : 48,0 КГц
Частота кадров                           : 31,250 кадров/сек (1536 SPF)
Битовая глубина                          : 16 бит
Метод сжатия                             : С потерями
Размер потока                            : 117 Мбайт (1%)
Заголовок                                : DUB | SDI Media
Язык                                     : Russian
По умолчанию                             : Да
Принудительно                            : Нет

Аудио #2
Идентификатор                            : 3
Формат                                   : AC-3
Формат/Информация                        : Audio Coding 3
Идентификатор кодека                     : A_AC3
Продолжительность                        : 1 ч. 24 м.
Вид битрейта                             : Постоянный
Битрейт                                  : 224 Кбит/сек
Каналы                                   : 2 канала
Расположение каналов                     : Front: L R
Частота                                  : 48,0 КГц
Частота кадров                           : 31,250 кадров/сек (1536 SPF)
Битовая глубина                          : 16 бит
Метод сжатия                             : С потерями
Размер потока                            : 136 Мбайт (1%)
Заголовок                                : MVO | 1 канал
Язык                                     : Russian
По умолчанию                             : Нет
Принудительно                            : Нет

Аудио #3
Идентификатор                            : 4
Формат                                   : AC-3
Формат/Информация                        : Audio Coding 3
Идентификатор кодека                     : A_AC3
Продолжительность                        : 1 ч. 24 м.
Вид битрейта                             : Постоянный
Битрейт                                  : 192 Кбит/сек
Каналы                                   : 2 канала
Расположение каналов                     : Front: L R
Частота                                  : 48,0 КГц
Частота кадров                           : 31,250 кадров/сек (1536 SPF)
Битовая глубина                          : 16 бит
Метод сжатия                             : С потерями
Размер потока                            : 117 Мбайт (1%)
Заголовок                                : DVO | R5
Язык                                     : Russian
По умолчанию                             : Нет
Принудительно                            : Нет

Аудио #4
Идентификатор                            : 5
Формат                                   : E-AC-3
Формат/Информация                        : Enhanced Audio Coding 3
Идентификатор кодека                     : A_EAC3
Продолжительность                        : 1 ч. 24 м.
Вид битрейта                             : Постоянный
Битрейт                                  : 224 Кбит/сек
Каналы                                   : 2 канала
Расположение каналов                     : Front: L R
Частота                                  : 48,0 КГц
Частота кадров                           : 187,500 кадров/сек (256 SPF)
Метод сжатия                             : С потерями
Размер потока                            : 136 Мбайт (1%)
Заголовок                                : Original
Язык                                     : English
По умолчанию                             : Нет
Принудительно                            : Нет

Текст #1
Идентификатор                            : 6
Формат                                   : UTF-8
Идентификатор кодека                     : S_TEXT/UTF8
Идентификатор кодека/Информация          : UTF-8 Plain Text
Язык                                     : English
По умолчанию                             : Нет
Принудительно                            : Нет

Текст #2
Идентификатор                            : 7
Формат                                   : UTF-8
Идентификатор кодека                     : S_TEXT/UTF8
Идентификатор кодека/Информация          : UTF-8 Plain Text
Заголовок                                : SDH
Язык                                     : English
По умолчанию                             : Нет
Принудительно                            : Нет

Меню
00:00:00.000                             : en:Studio logos
00:00:41.000                             : en:Opening credits
00:01:31.000                             : en:Opening credits
00:04:37.000                             : en:Anne asks Sarah about a newcomer & later chats with him, outside Chicheley Hall
00:07:20.000                             : en:James informs Anne about Maggie's husband being alive, James's apartment
00:08:17.000                             : en:James is surprised to see Bill waiting, outside Hardy Manning Rice office
00:10:09.000                             : en:James expresses his annoyance toward Bill to Anne, James's apartment
00:12:05.000                             : en:Maggie calls Anne to tell her about her husband's accident, James's apartment
00:14:45.000                             : en:James visits Lord Rawston to return Bill's wares, Chicheley Hall
00:16:25.000                             : en:Anne calls James to inform him about Maggie's husband, Hardy Manning Rice office
00:18:04.000                             : en:James confesses to Anne that he suspects Bill, James's apartment
00:19:34.000                             : en:James accuses Bill of being responsible for the accident, restaurant
00:22:27.000                             : en:Anne confesses the truth about the accident to James, James's apartment
00:28:34.000                             : en:Anne tells James why she cheated on him, Llandudno
00:31:48.000                             : en:Anne suggests James her supposed plan after returning to London, restaurant
00:32:55.000                             : en:Maggie declines Anne's offer, James's apartment
00:34:47.000                             : en:Inspector Marshall asks James & Anne for the guest list of the party, James's apartment
00:37:14.000                             : en:Anne has a nightmare, James's apartment
00:39:10.000                             : en:James detects Anne's lie
00:42:54.000                             : en:Bill tells James to think of an excuse to save Anne, Chicheley Hall
00:45:56.000                             : en:Anne tells James about her & Bill's plan for a trip to Paris, James's apartment
00:48:45.000                             : en:Inspector Marshall discusses Maggie's statement with James, Hardy Manning Rice office
00:51:20.000                             : en:Priscilla asks James out on a date, Hardy Manning Rice office
00:53:34.000                             : en:James receives a note from Anne & later calls her, George Fifth hotel
00:57:23.000                             : en:James updates Anne about Inspector Marshall's findings, park
00:58:55.000                             : en:Maggie tells James about her statement, apartment garden
01:01:45.000                             : en:James asks Priscilla if the date offer is still open, Hardy Manning Rice office
01:03:14.000                             : en:Anne tries to convince Maggie that she is guilty, Maggie's house
01:05:24.000                             : en:Maggie tells Inspector Marshall that she made a wrong observation earlier, outside Maggie's house
01:07:59.000                             : en:Mr. Angus Burrell informs James about Bill's illness, Denham station
01:09:55.000                             : en:Bill tells James not to mention his condition to Anne, hospital
01:12:11.000                             : en:James reveals Bill's condition to Anne, James's apartment
01:13:37.000                             : en:Angus appreciates Anne's help, James's apartment
01:16:17.000                             : en:James expresses his concerns for Bill to Anne, street
01:18:56.000                             : en:Simon shows James the newspaper, Hardy Manning Rice office
01:19:51.000                             : en:Anne thanks James for coming for the funeral, cemetery
01:21:38.000                             : en:End credits



[+] Дополнительная информация
• В озвучке первого канала не хватает фрагмента (00:52:38 > 01:02:42), на это место сделана вставка двухголоски R5.
• Исходник видео WEB-DL Amazon.



Скриншоты:
[+] Всего файлов в раздаче - 1:
Разная.ложь.2005.WEB-DL.1080p.mkv8.91 GB

Отзывы
Зарегистрируйтесь чтобы добавить комментарий.
Обратная связь
Copyleft ©