↑↓Torrent.by
Поиск
Логин: Регистрация
Пароль: Восстановить пароль
Загрузка...

Авария / Breakdown (1997) WEB-DL 1080p от KORSAR | P, P2, A

Скачать avariya-breakdown-1997-web-dl-1080p-ot-korsar-p-p2-a.torrent
U Магнитная ссылка Размер: 7.55 GB Раздают: 24 Качают: 13 Добавлен: 2018-08-07 14:35:31
Авария / Breakdown (1997) WEB-DL 1080p от KORSAR | P, P2, A

Информация о фильме
Название: Авария
Оригинальное название: Breakdown
Год выпуска: 1997
Жанр:  Боевик, триллер, драма, криминал, детектив
Выпущено: США, Dino De Laurentiis Productions, Paramount Pictures, Spelling Films, Illusion Arts Inc., Slagle Minimotion Inc.
Продолжительность: 01:33:11
Перевод: Профессиональный многоголосый, профессиональный двухголосый, авторский одноголосый
Режиссер: Джонатан Мостоу / Jonathan Mostow
В ролях: Курт Расселл, Джей Ти Уолш, Кэтлин Куинлен, М.С. Гэйни, Джек Ноузуорти, Рекс Линн, Ритч Бринкли, Мойра Харрис, Ким Робиллард, Томас Копаче, Винсент Берри, Хелен Даффи, Эрик Джордж, Энсел Кук, Морган Х. Маргулис, Джин Хартлайн, Брэд Спенсер, Стив Уайт, Марк Энтони Уильямс, Рэймонд Т. Уильямс

О фильме
Джефф и Эми Тейлор решили переехать к новому месту жительства в Сан-Диего на дорогом джипе. По дороге Джефф чуть не врезался в пикап с двумя местными отморозками. А когда джип неожиданно заглох на обочине пустынной трассы, водитель попутного трейлера Рэд Барр предложил подвезти Эми до ближайшего телефона, а Джефф остался охранять машину. С этого момента его жизнь превращается в кошмарный сон. В придорожном кафе, где он договорился встретиться с женой, Джефф не находит Эми. Оказывается, доморощенные бандиты решили взять за похищенную женщину выкуп. И тогда миролюбивый обыватель Джефф, вырвавшись из-под стволов вымогателей, сам превращается в безжалостного охотника.

Файл
Качество: WEB-DL 1080p
Видео: MPEG-4 AVC, 1920x816 (2.35:1), 8739 kbps, 23.976 fps
Аудио 1: Russian: 48 kHz, AC3, 5.1 ch, 448 kbps - DVO, НТВ+
Аудио 2: Russian: 48 kHz, AC3, 5.1 ch, 384 kbps - DVO, Twister
Аудио 3: Russian: 48 kHz, AC3, 2.0 ch, 192 kbps - MVO, СТС
Аудио 4: Russian: 48 kHz, AC3, 2.0 ch, 192 kbps - DVO, TV1000
Аудио 5: Russian: 48 kHz, AC3, 2.0 ch, 192 kbps - MVO, РТР
Аудио 6: Russian: 48 kHz, AC3, 5.1 ch, 384 kbps - AVO, А. Гаврилов
Аудио 7: Russian: 48 kHz, AC3, 2.0 ch, 192 kbps - AVO, Ю. Живов
Аудио 8: Ukrainian: 48 kHz, AC3, 2.0 ch, 192 kbps - MVO, ICTV
Аудио 9: English: 48 kHz, AC3, 5.1 ch, 448 kbps - Оригинал
Субтитры: Русские, английские
Навигация по главам: есть



[+] MediaInfo
Общее
Уникальный идентификатор                 : 170614768284178205023885798364108026321 (0x805B3588D7FB67F98DD608A9E563F1D1)
Полное имя                               : Breakdown.1997.AMZN.WEB-DL.1080p.mkv
Формат                                   : Matroska
Версия формата                           : Version 2
Размер файла                             : 7,55 Гбайт
Продолжительность                        : 1 ч. 33 м.
Режим общего битрейта                    : Переменный
Общий поток                              : 11,6 Мбит/сек
Дата кодирования                         : UTC 2018-08-06 19:07:15
Программа кодирования                    : mkvmerge v5.8.0 ('No Sleep / Pillow') built on Sep  2 2012 15:37:04
Библиотека кодирования                   : libebml v1.2.3 + libmatroska v1.3.0

Видео
Идентификатор                            : 1
Формат                                   : AVC
Формат/Информация                        : Advanced Video Codec
Профиль формата                          : High@L4
Параметр CABAC формата                   : Да
Параметр RefFrames формата               : 4 кадра
Идентификатор кодека                     : V_MPEG4/ISO/AVC
Продолжительность                        : 1 ч. 33 м.
Вид битрейта                             : Переменный
Битрейт                                  : 8739 Кбит/сек
Максимальный битрейт                     : 15,0 Мбит/сек
Ширина                                   : 1920 пикселей
Высота                                   : 816 пикселей
Соотношение сторон                       : 2,35:1
Режим частоты кадров                     : Постоянный
Частота кадров                           : 23,976 (24000/1001) кадра/сек
Цветовое пространство                    : YUV
Субдискретизация насыщенности            : 4:2:0
Битовая глубина                          : 8 бит
Тип развёртки                            : Прогрессивная
Бит/(Пиксели*Кадры)                      : 0.233
Размер потока                            : 5,69 Гбайт (75%)
Библиотека кодирования                   : x264 core 148 r2623 d5b2374
Настройки программы                      : cabac=1 / ref=4 / deblock=1:-1:-1 / analyse=0x3:0x133 / me=umh / subme=9 / psy=1 / psy_rd=1.00:0.15 / mixed_ref=1 / me_range=24 / chroma_me=1 / trellis=2 / 8x8dct=1 / cqm=0 / deadzone=21,11 / fast_pskip=1 / chroma_qp_offset=-3 / threads=25 / lookahead_threads=4 / sliced_threads=0 / nr=150 / decimate=1 / interlaced=0 / bluray_compat=0 / constrained_intra=0 / bframes=8 / b_pyramid=2 / b_adapt=2 / b_bias=0 / direct=3 / weightb=1 / open_gop=0 / weightp=2 / keyint=120 / keyint_min=61 / scenecut=0 / intra_refresh=0 / rc_lookahead=120 / rc=crf / mbtree=1 / crf=18.0 / qcomp=0.60 / qpmin=0 / qpmax=69 / qpstep=4 / vbv_maxrate=15000 / vbv_bufsize=31250 / crf_max=0.0 / nal_hrd=vbr / filler=0 / ip_ratio=1.40 / aq=3:1.00
Default                                  : Да
Forced                                   : Нет
Цветовой диапазон                        : Limited
Основные цвета                           : BT.709
Характеристики трансфера                 : BT.709
Коэффициенты матрицы                     : BT.709

Аудио #1
Идентификатор                            : 2
Формат                                   : AC-3
Формат/Информация                        : Audio Coding 3
Параметр Endianness формата              : Big
Идентификатор кодека                     : A_AC3
Продолжительность                        : 1 ч. 33 м.
Вид битрейта                             : Постоянный
Битрейт                                  : 448 Кбит/сек
Каналы                                   : 6 каналов
Расположение каналов                     : Front: L C R, Side: L R, LFE
Частота                                  : 48,0 КГц
Частота кадров                           : 31,250 кадров/сек (1536 SPF)
Битовая глубина                          : 16 бит
Метод сжатия                             : С потерями
Размер потока                            : 299 Мбайт (4%)
Заголовок                                : DVD, НТВ+
Язык                                     : Russian
Default                                  : Да
Forced                                   : Нет

Аудио #2
Идентификатор                            : 3
Формат                                   : AC-3
Формат/Информация                        : Audio Coding 3
Параметр Endianness формата              : Big
Идентификатор кодека                     : A_AC3
Продолжительность                        : 1 ч. 33 м.
Вид битрейта                             : Постоянный
Битрейт                                  : 384 Кбит/сек
Каналы                                   : 6 каналов
Расположение каналов                     : Front: L C R, Side: L R, LFE
Частота                                  : 48,0 КГц
Частота кадров                           : 31,250 кадров/сек (1536 SPF)
Битовая глубина                          : 16 бит
Метод сжатия                             : С потерями
Размер потока                            : 256 Мбайт (3%)
Заголовок                                : DVO, Twister
Язык                                     : Russian
Default                                  : Нет
Forced                                   : Нет

Аудио #3
Идентификатор                            : 4
Формат                                   : AC-3
Формат/Информация                        : Audio Coding 3
Параметр Endianness формата              : Big
Идентификатор кодека                     : A_AC3
Продолжительность                        : 1 ч. 33 м.
Вид битрейта                             : Постоянный
Битрейт                                  : 192 Кбит/сек
Каналы                                   : 2 канала
Расположение каналов                     : Front: L R
Частота                                  : 48,0 КГц
Частота кадров                           : 31,250 кадров/сек (1536 SPF)
Битовая глубина                          : 16 бит
Метод сжатия                             : С потерями
Размер потока                            : 128 Мбайт (2%)
Заголовок                                : MVO, СТС
Язык                                     : Russian
Default                                  : Нет
Forced                                   : Нет

Аудио #4
Идентификатор                            : 5
Формат                                   : AC-3
Формат/Информация                        : Audio Coding 3
Параметр Endianness формата              : Big
Идентификатор кодека                     : A_AC3
Продолжительность                        : 1 ч. 33 м.
Вид битрейта                             : Постоянный
Битрейт                                  : 192 Кбит/сек
Каналы                                   : 2 канала
Расположение каналов                     : Front: L R
Частота                                  : 48,0 КГц
Частота кадров                           : 31,250 кадров/сек (1536 SPF)
Битовая глубина                          : 16 бит
Метод сжатия                             : С потерями
Размер потока                            : 128 Мбайт (2%)
Заголовок                                : DVO, TV1000
Язык                                     : Russian
Default                                  : Нет
Forced                                   : Нет

Аудио #5
Идентификатор                            : 6
Формат                                   : AC-3
Формат/Информация                        : Audio Coding 3
Параметр Endianness формата              : Big
Идентификатор кодека                     : A_AC3
Продолжительность                        : 1 ч. 33 м.
Вид битрейта                             : Постоянный
Битрейт                                  : 192 Кбит/сек
Каналы                                   : 2 канала
Расположение каналов                     : Front: L R
Частота                                  : 48,0 КГц
Частота кадров                           : 31,250 кадров/сек (1536 SPF)
Битовая глубина                          : 16 бит
Метод сжатия                             : С потерями
Размер потока                            : 128 Мбайт (2%)
Заголовок                                : MVO, РТР
Язык                                     : Russian
Default                                  : Нет
Forced                                   : Нет

Аудио #6
Идентификатор                            : 7
Формат                                   : AC-3
Формат/Информация                        : Audio Coding 3
Параметр Endianness формата              : Big
Идентификатор кодека                     : A_AC3
Продолжительность                        : 1 ч. 33 м.
Вид битрейта                             : Постоянный
Битрейт                                  : 384 Кбит/сек
Каналы                                   : 6 каналов
Расположение каналов                     : Front: L C R, Side: L R, LFE
Частота                                  : 48,0 КГц
Частота кадров                           : 31,250 кадров/сек (1536 SPF)
Битовая глубина                          : 16 бит
Метод сжатия                             : С потерями
Размер потока                            : 256 Мбайт (3%)
Заголовок                                : AVO, А. Гаврилов
Язык                                     : Russian
Default                                  : Нет
Forced                                   : Нет

Аудио #7
Идентификатор                            : 8
Формат                                   : AC-3
Формат/Информация                        : Audio Coding 3
Параметр Endianness формата              : Big
Идентификатор кодека                     : A_AC3
Продолжительность                        : 1 ч. 33 м.
Вид битрейта                             : Постоянный
Битрейт                                  : 192 Кбит/сек
Каналы                                   : 2 канала
Расположение каналов                     : Front: L R
Частота                                  : 48,0 КГц
Частота кадров                           : 31,250 кадров/сек (1536 SPF)
Битовая глубина                          : 16 бит
Метод сжатия                             : С потерями
Размер потока                            : 128 Мбайт (2%)
Заголовок                                : AVO, Ю. Живов
Язык                                     : Russian
Default                                  : Нет
Forced                                   : Нет

Аудио #8
Идентификатор                            : 9
Формат                                   : AC-3
Формат/Информация                        : Audio Coding 3
Параметр Endianness формата              : Big
Идентификатор кодека                     : A_AC3
Продолжительность                        : 1 ч. 33 м.
Вид битрейта                             : Постоянный
Битрейт                                  : 192 Кбит/сек
Каналы                                   : 2 канала
Расположение каналов                     : Front: L R
Частота                                  : 48,0 КГц
Частота кадров                           : 31,250 кадров/сек (1536 SPF)
Битовая глубина                          : 16 бит
Метод сжатия                             : С потерями
Размер потока                            : 128 Мбайт (2%)
Заголовок                                : MVO, ICTV
Язык                                     : Ukrainian
Default                                  : Нет
Forced                                   : Нет

Аудио #9
Идентификатор                            : 10
Формат                                   : AC-3
Формат/Информация                        : Audio Coding 3
Параметр Endianness формата              : Big
Идентификатор кодека                     : A_AC3
Продолжительность                        : 1 ч. 33 м.
Вид битрейта                             : Постоянный
Битрейт                                  : 448 Кбит/сек
Каналы                                   : 6 каналов
Расположение каналов                     : Front: L C R, Side: L R, LFE
Частота                                  : 48,0 КГц
Частота кадров                           : 31,250 кадров/сек (1536 SPF)
Битовая глубина                          : 16 бит
Метод сжатия                             : С потерями
Размер потока                            : 299 Мбайт (4%)
Заголовок                                : Оригинал
Язык                                     : English
Default                                  : Нет
Forced                                   : Нет

Текст #1
Идентификатор                            : 11
Формат                                   : UTF-8
Идентификатор кодека                     : S_TEXT/UTF8
Идентификатор кодека/Информация          : UTF-8 Plain Text
Язык                                     : Russian
Default                                  : Нет
Forced                                   : Нет

Текст #2
Идентификатор                            : 12
Формат                                   : UTF-8
Идентификатор кодека                     : S_TEXT/UTF8
Идентификатор кодека/Информация          : UTF-8 Plain Text
Язык                                     : English
Default                                  : Нет
Forced                                   : Нет

Меню
00:00:00.000                             : en:Opening Credits
00:02:46.024                             : en:A Near Miss
00:03:48.024                             : en:Last Chance For Gas
00:07:36.024                             : en:Breakdown
00:10:31.024                             : en:Hitching A Ride
00:13:55.024                             : en:Fixing The Problem
00:15:06.024                             : en:Belle's Diner
00:18:07.024                             : en:Mistaken Identity
00:20:51.024                             : en:No Visible Evidence
00:27:17.024                             : en:Missing Persons
00:28:43.024                             : en:Back At Belle's
00:31:25.024                             : en:Billy Knows
00:33:20.024                             : en:In Close Pursuit
00:35:59.024                             : en:Down River
00:39:39.024                             : en:The Exact Dollar Amount
00:44:25.024                             : en:Downtown Brackett
00:51:13.024                             : en:Turning The Tables
00:57:10.024                             : en:Officer Down
01:00:09.024                             : en:Texaco Truckstop
01:02:09.024                             : en:Stowaway
01:05:27.024                             : en:Home Early
01:08:55.024                             : en:Unloading Truck
01:12:47.024                             : en:Armed And Dangerous
01:13:58.024                             : en:Den Of Thieves
01:17:10.024                             : en:Getting Free
01:19:32.024                             : en:Run For It
01:21:23.024                             : en:Drive For Your Life
01:23:10.024                             : en:The Bridge
01:24:58.024                             : en:Over The Edge
01:27:40.024                             : en:Revenge
01:29:29.024                             : en:End Credits



Скриншоты:
[+] Всего файлов в раздаче - 1:
Breakdown.1997.AMZN.WEB-DL.1080p.mkv7.55 GB

Текущая раздача:
ДатаКомментарии    РазмерПиры
2018-08-07 U Авария / Breakdown (1997) WEB-DL 1080p от KORSAR | P, P2, A 7.55 GB ↑ 24 ↓ 13

Показать еще раздачи по запросу авария:
2018-03-04 U Авария [01-04 из 04] (2017) WEB-DLRip от GeneralFilm 1.46 GB ↑ 410 ↓ 117
2018-03-04 U Авария [01-04 из 04] (2017) WEB-DLRip-AVC от Files-x 2.36 GB ↑ 47 ↓ 49
2018-03-04 U Авария [01-04 из 04] (2017) WEB-DLRip от Files-x 2.15 GB ↑ 119 ↓ 39
2018-03-03 U Авария [01х01-04 из 04] (2017) SATRip-AVC 2.23 GB ↑ 16 ↓ 3
2018-01-30 U Происшествие / Авария / Accident (2017) BDRip | L1 1.15 GB ↑ 156 ↓ 49
2017-10-08 U Авария / Breakdown (1997) WEB-DL 720p | P, P2, A 1К4.11 GB ↑ 148 ↓ 31
2013-11-15 U Дискотека Авария - Дискография [6 Альбомов, 4 Сингла, 4 Сборника] (1999-2011) FLAC 3К5.46 GB ↑ 146 ↓ 11

Отзывы
Зарегистрируйтесь чтобы добавить комментарий.
Обратная связь
Copyleft ©