↑↓Torrent.by
Поиск
Логин: Регистрация
Пароль: Восстановить пароль
Загрузка...

Джози / Josie (2018) BDRip 720p | HDRezka Studio

Скачать dzhozi-josie-2018-bdrip-720p-hdrezka-studio.torrent
U Магнитная ссылка Размер: 4.51 GB Раздают: 26 Качают: 17 Добавлен: 2018-08-07 14:35:46
Джози / Josie (2018) BDRip 720p | HDRezka Studio

Название: Джози
Оригинальное название: Josie
Год выхода: 2018
Жанр: Триллер, драма
Режиссер: Эрик Инглэнд
В ролях: Софи Тёрнер, Дилан МакДермотт, Дег Ферч, Джек Килмер, Курт Фуллер, Робин Бартлетт, Ломбардо Бойяр, Джордж Тодд МакЛахлан, Мика Фицджералд, Мики Ферч

О фильме:
Бывший тюремщик Хэнк, некогда работавший в камере смертников, устраивается охранником на школьную парковку в тихом городке. Его однообразная затворническая жизнь неожиданно меняется после появления новенькой старшеклассницы, с которой у Хэнка завязываются неоднозначные отношения.

Страна: США
Студия: Boo Pictures
Продолжительность: 01:27:23
Перевод: Профессиональный многоголосый | HDRezka Studio

Файл
Кодек: x264
Качество: BDRip 720p
Видео: MPEG-4 AVC, 5500 Kбит/с, 1280x544
Звук #1: Русский | AC3, 2 ch, 384 Кбит/с | Профессиональный многоголосый | HDRezka Studio
Звук #2: Английский | DTS, 6 ch, 1536 Кбит/с | Оригинал
Субтитры: Английские


[+] Инфо-файл
Формат                                   : Matroska
Версия формата                           : Version 2
Размер файла                             : 4,51 Гбайт
Продолжительность                        : 1 ч. 27 м.
Общий поток                              : 7393 Кбит/сек
Название фильма                          : Josie.2017.720p.BluRay.by.zzZGVvv
Дата кодирования                         : UTC 2018-08-07 04:36:28
Программа кодирования                    : mkvmerge v5.8.0 ('No Sleep / Pillow') built on Sep  2 2012 15:37:04
Библиотека кодирования                   : libebml v1.2.3 + libmatroska v1.3.0
Attachements                             : cover.jpg

Видео
Идентификатор                            : 1
Формат                                   : AVC
Формат/Информация                        : Advanced Video Codec
Профиль формата                          : High@L4.1
Параметр CABAC формата                   : Да
Параметр ReFrames формата                : 4 кадра
Идентификатор кодека                     : V_MPEG4/ISO/AVC
Продолжительность                        : 1 ч. 27 м.
Битрейт                                  : 5500 Кбит/сек
Ширина                                   : 1280 пикселей
Высота                                   : 544 пикселя
Соотношение сторон                       : 2,35:1
Режим частоты кадров                     : Постоянный
Частота кадров                           : 23,976 кадра/сек
Цветовое пространство                    : YUV
Субдискретизация насыщенности            : 4:2:0
Битовая глубина                          : 8 бит
Тип развёртки                            : Прогрессивная
Бит/(Пиксели*Кадры)                      : 0.329
Размер потока                            : 3,27 Гбайт (72%)
Заголовок                                : Josie.2017.720p.BluRay
Библиотека кодирования                   : x264 core 148 r2795M aaa9aa8
Настройки программы                      : cabac=1 / ref=4 / deblock=1:-2:-2 / analyse=0x3:0x113 / me=umh / subme=9 / psy=1 / psy_rd=1.00:0.15 / mixed_ref=1 / me_range=16 / chroma_me=1 / trellis=2 / 8x8dct=1 / cqm=0 / deadzone=21,11 / fast_pskip=1 / chroma_qp_offset=-3 / threads=24 / lookahead_threads=3 / sliced_threads=0 / nr=0 / decimate=1 / interlaced=0 / bluray_compat=0 / constrained_intra=0 / bframes=3 / b_pyramid=2 / b_adapt=1 / b_bias=0 / direct=3 / weightb=1 / open_gop=0 / weightp=2 / keyint=250 / keyint_min=25 / scenecut=40 / intra_refresh=0 / rc_lookahead=50 / rc=2pass / mbtree=1 / bitrate=5500 / ratetol=1.0 / qcomp=0.60 / qpmin=0 / qpmax=69 / qpstep=4 / cplxblur=20.0 / qblur=0.5 / vbv_maxrate=31250 / vbv_bufsize=31250 / nal_hrd=none / filler=0 / ip_ratio=1.40 / aq=1:1.00
Язык                                     : English
Default                                  : Да
Forced                                   : Нет

Аудио #1
Идентификатор                            : 2
Формат                                   : AC-3
Формат/Информация                        : Audio Coding 3
Расширение режима                        : CM (complete main)
Параметр Endianness формата              : Big
Идентификатор кодека                     : A_AC3
Продолжительность                        : 1 ч. 27 м.
Вид битрейта                             : Постоянный
Битрейт                                  : 384 Кбит/сек
Каналы                                   : 2 канала
Расположение каналов                     : Front: L R
Частота                                  : 48,0 КГц
Метод сжатия                             : С потерями
Размер потока                            : 240 Мбайт (5%)
Заголовок                                : HDRezka Studio
Язык                                     : Russian
Default                                  : Да
Forced                                   : Нет

Аудио #2
Идентификатор                            : 3
Формат                                   : DTS
Формат/Информация                        : Digital Theater Systems
Режим                                    : 16
Параметр Endianness формата              : Big
Идентификатор кодека                     : A_DTS
Продолжительность                        : 1 ч. 27 м.
Вид битрейта                             : Постоянный
Битрейт                                  : 1509 Кбит/сек
Каналы                                   : 6 каналов
Расположение каналов                     : Front: L C R, Side: L R, LFE
Частота                                  : 48,0 КГц
Битовая глубина                          : 16 бит
Метод сжатия                             : С потерями
Размер потока                            : 943 Мбайт (20%)
Язык                                     : English
Default                                  : Нет
Forced                                   : Нет

Текст
Идентификатор                            : 4
Формат                                   : UTF-8
Идентификатор кодека                     : S_TEXT/UTF8
Идентификатор кодека/Информация          : UTF-8 Plain Text
Язык                                     : English
Default                                  : Нет
Forced                                   : Нет

Меню
00:00:00.000                             : en:Chapter 1
00:06:11.543                             : en:Chapter 2
00:13:49.125                             : en:Chapter 3
00:21:06.645                             : en:Chapter 4
00:29:22.182                             : en:Chapter 5
00:33:26.009                             : en:Chapter 6
00:40:07.201                             : en:Chapter 7
00:49:54.496                             : en:Chapter 8
00:58:19.292                             : en:Chapter 9
01:05:45.488                             : en:Chapter 10
01:15:09.510                             : en:Chapter 11
01:23:48.779                             : en:Chapter 12




Скриншоты:
[+] Всего файлов в раздаче - 1:
Josie.2017.720p.BluRay.by.zzZGVvv.mkv4.51 GB

Текущая раздача:
ДатаКомментарии    РазмерПиры
2018-08-07 U Джози / Josie (2018) BDRip 720p | HDRezka Studio 4.51 GB ↑ 26 ↓ 17

Похожие раздачи по запросу - джози:
2018-08-08 U Джози / Josie (2018) HDRip от MegaPeer | HDRezka Studio 744.74 MB ↑ 23 ↓ 12
2018-08-07 U Джози / Josie (2018) BDRip от MegaPeer | HDRezka Studio 1.46 GB ↑ 67 ↓ 22
2018-03-29 U Джози / Josie (2017) WEB-DLRip | HDRezka Studio 1.45 GB ↑ 92 ↓ 36
2018-03-29 U Джози / Josie (2017) WEB-DL 1080p | HDRezka Studio 3.28 GB ↑ 51 ↓ 28

Отзывы
Зарегистрируйтесь чтобы добавить комментарий.
Обратная связь
Copyleft ©