↑↓Torrent.by
Поиск
Логин: Регистрация
Пароль: Восстановить пароль
Загрузка...

Паранормальное / The Endless (2017) BDRemux 1080p от ExKinoRay | SPA Transfer | iTunes

Скачать paranormalnoe-the-endless-2017-bdremux-1080p-ot-exkinoray-spa-transfer-itunes.torrent
U Магнитная ссылка Размер: 23.50 GB Раздают: 22 Качают: 20 Добавлен: 2018-08-07 14:36:00
Паранормальное / The Endless (2017) BDRemux 1080p от ExKinoRay | SPA Transfer | iTunes

Название: Паранормальное
Оригинальное название: The Endless
Год выхода: 2017
Жанр: Ужасы, фантастика, мистика, триллер
Режиссер: Джастин Бенсон, Аарон Мурхед
В ролях: Калли Эрнандес, Лью Темпл, Эмили Монтегью, Джеймс Джордан, Тейт Эллингтон, Джастин Бенсон, Аарон Мурхед, Рик Сарабиа, Кира Пауэлл, Питер Силелла

О фильме: Детьми братья Джастин и Аарон бежали из секты конца света. Через 10 лет они получают видеопослание от членов культа и решают навестить свою бывшую «семью». Но, вернувшись, они понимают, что кассету им никто не посылал, а с этим местом явно что-то не так. Что нечто потустороннее, во что верят сектанты, существует на самом деле.

Страна: США
Студия: Snowfort Pictures, Pfaff & Pfaff Productions, Love & Death Productions
Продолжительность: 01:51:23
Перевод: Профессиональный многоголосый | iTunes

Качество: BDRemux 1080p
Видео: MPEG-4 AVC, 1920x1080, 28 Mbit/s, 23.976 fps
Звук:
Аудио #01: 48 kHz, AC3, 5.1, 384 Kbps | iTunes | RUS |
Аудио #02: 48 kHz, DTS-HD MA, 5.1, 1813 Kbps | Оригинал |  ENG |
Субтитры: Русские (full), английские

Релиз:

Автор релиза:


[+] MI
General
Unique ID                   : 185158270741617434774775979955348650882 (0x8B4C2F910FEE7396B453FB180BF93B82)
Complete name               : D:Video111The.Endless.2017.BDREMUX.1080p.ExKinoRay.mkv
Format                      : Matroska
Format version              : Version 4 / Version 2
File size                   : 23.5 GiB
Duration                    : 1 h 51 min
Overall bit rate mode       : Variable
Overall bit rate            : 30.2 Mb/s
Movie name                  : The Endless 2017 from ExKinoRay
Encoded date                : UTC 2018-08-06 19:50:23
Writing application         : mkvmerge v7.3.0 ('Nouages') 64bit built on Oct 22 2014 18:53:34
Writing library             : libebml v1.3.0 + libmatroska v1.4.1

Video
ID                          : 1
Format                      : AVC
Format/Info                 : Advanced Video Codec
Format profile              : High@L4.1
Format settings             : CABAC / 4 Ref Frames
Format settings, CABAC      : Yes
Format settings, ReFrames   : 4 frames
Codec ID                    : V_MPEG4/ISO/AVC
Duration                    : 1 h 51 min
Bit rate mode               : Variable
Bit rate                    : 28.0 Mb/s
Maximum bit rate            : 36.0 Mb/s
Width                       : 1 920 pixels
Height                      : 1 080 pixels
Display aspect ratio        : 16:9
Frame rate mode             : Constant
Frame rate                  : 24.000 FPS
Standard                    : NTSC
Color space                 : YUV
Chroma subsampling          : 4:2:0
Bit depth                   : 8 bits
Scan type                   : Progressive
Bits/(Pixel*Frame)          : 0.563
Stream size                 : 21.8 GiB (93%)
Language                    : English
Default                     : Yes
Forced                      : No
Color range                 : Limited
Color primaries             : BT.709
Transfer characteristics    : BT.709
Matrix coefficients         : BT.709

Audio #1
ID                          : 2
Format                      : AC-3
Format/Info                 : Audio Coding 3
Commercial name             : Dolby Digital
Codec ID                    : A_AC3
Duration                    : 1 h 51 min
Bit rate mode               : Constant
Bit rate                    : 384 kb/s
Channel(s)                  : 6 channels
Channel positions           : Front: L C R, Side: L R, LFE
Sampling rate               : 48.0 kHz
Frame rate                  : 31.250 FPS (1536 SPF)
Bit depth                   : 16 bits
Compression mode            : Lossy
Stream size                 : 306 MiB (1%)
Title                       : iTunes
Language                    : Russian
Service kind                : Complete Main
Default                     : Yes
Forced                      : Yes

Audio #2
ID                          : 3
Format                      : DTS
Format/Info                 : Digital Theater Systems
Format profile              : MA / Core
Codec ID                    : A_DTS
Duration                    : 1 h 51 min
Bit rate mode               : Variable / Constant
Bit rate                    : 1 813 kb/s / 768 kb/s
Channel(s)                  : 6 channels
Channel positions           : Front: L C R, Side: L R, LFE
Sampling rate               : 48.0 kHz
Frame rate                  : 93.750 FPS (512 SPF)
Bit depth                   : 16 bits
Compression mode            : Lossless / Lossy
Stream size                 : 1.41 GiB (6%)
Title                       : Original
Language                    : English
Default                     : No
Forced                      : No

Text #1
ID                          : 4
Format                      : UTF-8
Codec ID                    : S_TEXT/UTF8
Codec ID/Info               : UTF-8 Plain Text
Duration                    : 1 h 50 min
Bit rate                    : 78 b/s
Count of elements           : 1303
Stream size                 : 63.5 KiB (0%)
Title                       : Full
Language                    : Russian
Default                     : No
Forced                      : No

Text #2
ID                          : 5
Format                      : UTF-8
Codec ID                    : S_TEXT/UTF8
Codec ID/Info               : UTF-8 Plain Text
Duration                    : 1 h 51 min
Bit rate                    : 49 b/s
Count of elements           : 1321
Stream size                 : 40.4 KiB (0%)
Title                       : Full
Language                    : English
Default                     : No
Forced                      : No

Text #3
ID                          : 6
Format                      : UTF-8
Codec ID                    : S_TEXT/UTF8
Codec ID/Info               : UTF-8 Plain Text
Duration                    : 1 h 51 min
Bit rate                    : 52 b/s
Count of elements           : 1420
Stream size                 : 42.3 KiB (0%)
Title                       : SDH
Language                    : English
Default                     : No
Forced                      : No

Menu
00:00:00.000                : en:00:00:00.000
00:06:27.833                : en:00:06:27.833
00:13:14.875                : en:00:13:14.875
00:20:40.875                : en:00:20:40.875
00:27:18.833                : en:00:27:18.833
00:34:47.500                : en:00:34:47.500
00:41:36.625                : en:00:41:36.625
00:47:47.000                : en:00:47:47.000
00:55:59.083                : en:00:55:59.083
01:02:50.583                : en:01:02:50.583
01:08:07.292                : en:01:08:07.292
01:16:44.250                : en:01:16:44.250
01:24:00.708                : en:01:24:00.708
01:31:21.042                : en:01:31:21.042
01:37:53.917                : en:01:37:53.917
01:47:15.875                : en:01:47:15.875



Скриншоты:
[+] Всего файлов в раздаче - 1:
The.Endless.2017.BDREMUX.1080p.ExKinoRay.mkv23.50 GB

Текущая раздача:
ДатаКомментарии    РазмерПиры
2018-08-07 U Паранормальное / The Endless (2017) BDRemux 1080p от ExKinoRay | SPA Transfer | iTunes 23.50 GB ↑ 22 ↓ 20

Показать еще раздачи по запросу паранормальное:
2018-08-12 U Паранормальное / The Endless (2017) BDRip-AVC от ExKinoRay | iTunes 1К746.69 MB ↑ 53 ↓ 12
2018-08-08 U Паранормальное / The Endless (2017) HDRip от MegaPeer | iTunes 745.54 MB ↑ 22 ↓ 6
2018-08-07 U Паранормальное / The Endless (2017) BDRip 1080p от ExKinoRay | iTunes 10.47 GB ↑ 51 ↓ 47
2018-08-07 U Паранормальное / The Endless (2017) BDRip 720p от ExKinoRay | iTunes 4.34 GB ↑ 51 ↓ 28
2018-08-06 U Паранормальное / The Endless (2017) BDRip 1080p | iTunes 7.65 GB ↑ 255 ↓ 247
2018-08-06 U Паранормальное / The Endless (2017) BDRip-AVC от potroks | ESP-Transfer | iTunes 2К1.41 GB ↑ 18 ↓ 45
2018-08-06 U Паранормальное / The Endless (2017) BDRip-AVC от OlLanDGroup | iTunes 1.80 GB ↑ 64 ↓ 40

Отзывы
Зарегистрируйтесь чтобы добавить комментарий.
Обратная связь
Copyleft ©