↑↓Torrent.by
Поиск
Логин: Регистрация
Пароль: Восстановить пароль
Загрузка...

Последний контракт Халли / Khali the Killer (2017) BDRip | iTunes

Скачать posledniy-kontrakt-halli-khali-the-killer-2017-bdrip-itunes.torrent
U Магнитная ссылка Размер: 1.46 GB Раздают: 50 Качают: 33 Добавлен: 2018-08-07 16:38:34
Последний контракт Халли / Khali the Killer (2017) BDRip | iTunes

Последний контракт Халли / Киллер Кали / Khali the Killer

Страна: США
Производство: Millennium Films, Hollow Creek Pictures, Dark Water Productions, Cardinalwood Content
Год выпуска: 2017
Жанр:  драма, криминал
Продолжительность: 01:29:58

Режиссер: Джон Мэттьюс / Jon Matthews
Автор сценария: Джон Мэттьюс / Jon Matthews

В ролях: Ричард Кебрал, Райан Дорси, Корина Калдерон, Клэйтон Карденас, Кари Дж. Крамер, Челси Дебо, Дина Фриман, Джонни Рей Диас

Описание: Перед тем как отойти от дел, наемный убийца решается на одну последнюю работу ради денег для своей бабушки, которой требуется особый уход. Но всё идёт не по плану, когда он привязывается к своей будущей жертве, и герою предстоит принять, возможно, самое сложное решение в своей жизни...

Перевод: Профессиональный (многоголосый, закадровый) | iTunes
Субтитры: нет

Качество: BDRip | исходник Blu-Ray (GER) - Khali.the.Killer.2017.NORDiC.REMUX.1080p.BluRay.AVC.DTS-HD.MA.5.1-CDB
Формат: АVI
Видео кодек: XviD
Аудио кодек: АС3
Видео: 720x304 (2.35:1), 23.976 fps, XviD build 67 ~1 540 kbps avg
Аудио №1: 48.0 kHz, AC3 Dolby Digital, 3/2 (L,C,R,l,r) + LFE ch, ~384 kbps | RUS
Аудио №2: 48.0 kHz, AC3 Dolby Digital, 3/2 (L,C,R,l,r) + LFE ch, ~384 kbps | ENG

Дата премьеры (мир): 2 ноября 2017

Семпл

Релиз от: ylnian


[+] Media Info
General
Полное имя                               : Khali.the.Killer.2017.BDRip-ylnian.avi
Формат                                   : AVI
Формат/Информация                        : Audio Video Interleave
Размер файла                             : 1,46 Гбайт
Продолжительность                        : 1 ч. 29 м.
Общий поток                              : 2322 Кбит/сек
Программа кодирования                    : VirtualDubMod 1.5.10.3 | (build 2550/release)
Библиотека кодирования                   : VirtualDubMod build 2550/release

Видео
Идентификатор                            : 0
Формат                                   : MPEG-4 Visual
Профиль формата                          : Advanced Simple@L5
Настройки формата                        : BVOP1
Параметр BVOP формата                    : 1
Параметр QPel формата                    : Нет
Параметр GMC формата                     : Без точки перехода
Параметр матрицы формата                 : Default (MPEG)
Идентификатор кодека                     : XVID
Идентификатор кодека/Подсказка           : XviD
Продолжительность                        : 1 ч. 29 м.
Битрейт                                  : 1540 Кбит/сек
Ширина                                   : 720 пикселей
Высота                                   : 304 пикселя
Соотношение сторон                       : 2,35:1
Частота кадров                           : 23,976 (24000/1001) кадра/сек
Цветовое пространство                    : YUV
Субдискретизация насыщенности            : 4:2:0
Битовая глубина                          : 8 бит
Тип развёртки                            : Прогрессивная
Метод сжатия                             : С потерями
Бит/(Пиксели*Кадры)                      : 0.293
Размер потока                            : 991 Мбайт (66%)
Библиотека кодирования                   : XviD 67

Аудио #1
Идентификатор                            : 1
Формат                                   : AC-3
Формат/Информация                        : Audio Coding 3
Идентификатор кодека                     : 2000
Продолжительность                        : 1 ч. 29 м.
Вид битрейта                             : Постоянный
Битрейт                                  : 384 Кбит/сек
Каналы                                   : 6 каналов
Расположение каналов                     : Front: L C R, Side: L R, LFE
Частота                                  : 48,0 КГц
Частота кадров                           : 31,250 кадров/сек (1536 SPF)
Битовая глубина                          : 16 бит
Метод сжатия                             : С потерями
Размер потока                            : 247 Мбайт (17%)
Выравнивание                             : Разделение по промежуткам
Продолжительность промежутка             : 42  мс. (1,00 видеокадр)
Время предзагрузки промежутка            : 500  мс.
Заголовок                                : RUS - MVO - iTunes

Аудио #2
Идентификатор                            : 2
Формат                                   : AC-3
Формат/Информация                        : Audio Coding 3
Идентификатор кодека                     : 2000
Продолжительность                        : 1 ч. 29 м.
Вид битрейта                             : Постоянный
Битрейт                                  : 384 Кбит/сек
Каналы                                   : 6 каналов
Расположение каналов                     : Front: L C R, Side: L R, LFE
Частота                                  : 48,0 КГц
Частота кадров                           : 31,250 кадров/сек (1536 SPF)
Битовая глубина                          : 16 бит
Метод сжатия                             : С потерями
Размер потока                            : 247 Мбайт (17%)
Выравнивание                             : Разделение по промежуткам
Продолжительность промежутка             : 42  мс. (1,00 видеокадр)
Время предзагрузки промежутка            : 500  мс.
Заголовок                                : ENG



Скриншоты:
[+] Всего файлов в раздаче - 1:
Khali.the.Killer.2017.BDRip-ylnian.avi1.46 GB

Текущая раздача:
ДатаКомментарии    РазмерПиры
2018-08-07 U Последний контракт Халли / Khali the Killer (2017) BDRip | iTunes 1.46 GB ↑ 50 ↓ 33

Показать еще раздачи по запросу последний:
2018-08-08 U Последний контракт Халли / Khali the Killer (2017) BDRemux 1080p | iTunes 14.01 GB ↑ 30 ↓ 16
2018-08-01 U Последний охотник на ведьм / The Last Witch Hunter (2015) BDRip-AVC от HELLYWOOD | Лицензия 2.18 GB ↑ 47 ↓ 18
2018-07-18 U Андрей Круз, Андрей Царёв - Земли лишних. Андрей Новиков 2. Последний борт на Одессу (2018) МР3 303.29 MB ↑ 112 ↓ 20
2018-07-03 U Последний круиз / Final Voyage (1999) DVDRip-AVC | P2, A 2.64 GB ↑ 31 ↓ 11
2018-06-10 U Последний свидетель / The Last Witness (2018) WEB-DLRip от MegaPeer | HDrezka Studio 1.46 GB ↑ 79 ↓ 20
2018-06-09 U Последний настоящий гангстер / The Last O.G [S01] (2018) HDTVRip | Jaskier 2.59 GB ↑ 121 ↓ 24
2018-06-06 U Последний свидетель / The Last Witness (2018) WEBRip 720p | L2 3.21 GB ↑ 99 ↓ 17

Отзывы
Зарегистрируйтесь чтобы добавить комментарий.
Обратная связь
Copyleft ©