↑↓Torrent.by
Поиск
Логин: Регистрация
Пароль: Восстановить пароль
Загрузка...

Cнайпер: воин призрак / Sniper: Ghost Shooter (2016) WEB-DL 1080p | iTunes

Скачать cnayper-voin-prizrak-sniper-ghost-shooter-2016-web-dl-1080p-itunes.torrent
U Магнитная ссылка Размер: 7.14 GB Раздают: 32 Качают: 14 Добавлен: 2018-08-07 16:38:39
Cнайпер: воин призрак / Sniper: Ghost Shooter (2016) WEB-DL 1080p | iTunes

Название: Снайпер: воин призрак
Оригинальное название: Sniper: Ghost Shooter
Год выхода: 2016
Жанр: Боевик, драма, военный
Режиссер: Дон Майкл Пол
В ролях: Найджел Барбер, Чад Коллинз, Пресцилиана Эспаролини, Энок Фрост, Ник Гомес, Дэннис Хэйсбёрт, Равиль Исянов, Велислав Павлов, Стефани Вогт, Билли Зейн

О фильме:
Новая миссия для лучшего снайпера подразделения морской пехоты Брэндона Беккета оборачивается дуэлью с другим асом – Газаковым, бывшим российским военным, который ныне работает на тех, кто больше заплатит.

Страна: США
Студия: UFO International Productions
Продолжительность: 01:39:08
Перевод: Профессиональный многоголосый | iTunes

Файл
Формат: MKV
Кодек: x264
Качество: WEB-DL 1080p | Sniper.Ghost.Shooter.2016.1080p.AMZN.WEB-DL.DDP5.1.x264-ABM
Видео: MPEG-4 AVC, 9085 Kбит/с, 1920x1080
Звук #1: Русский | AC3, 6 ch, 384 Кбит/с | Профессиональный многоголосый | iTunes
Звук #2: Английский | EAC3, 6 ch, 640 Кбит/с
Субтитры: Русские, английские
[+] Инфо-файл
Формат                                   : Matroska
Версия формата                           : Version 2
Размер файла                             : 7,14 Гбайт
Продолжительность                        : 1 ч. 39 м.
Режим общего битрейта                    : Переменный
Общий поток                              : 10,3 Мбит/сек
Название фильма                          : Sniper.Ghost.Shooter.2016.1080p.AMZN.WEB-DL.by.zzZGVvv
Дата кодирования                         : UTC 2018-08-07 03:44:10
Программа кодирования                    : mkvmerge v5.8.0 ('No Sleep / Pillow') built on Sep  2 2012 15:37:04
Библиотека кодирования                   : libebml v1.2.3 + libmatroska v1.3.0
Attachements                             : cover.jpg

Видео
Идентификатор                            : 1
Формат                                   : AVC
Формат/Информация                        : Advanced Video Codec
Профиль формата                          : High@L4
Параметр CABAC формата                   : Да
Параметр ReFrames формата                : 4 кадра
Идентификатор кодека                     : V_MPEG4/ISO/AVC
Продолжительность                        : 1 ч. 39 м.
Вид битрейта                             : Переменный
Битрейт                                  : 9085 Кбит/сек
Максимальный битрейт                     : 15,0 Мбит/сек
Ширина                                   : 1920 пикселей
Высота                                   : 1080 пикселей
Соотношение сторон                       : 16:9
Режим частоты кадров                     : Постоянный
Частота кадров                           : 23,976 кадра/сек
Цветовое пространство                    : YUV
Субдискретизация насыщенности            : 4:2:0
Битовая глубина                          : 8 бит
Тип развёртки                            : Прогрессивная
Бит/(Пиксели*Кадры)                      : 0.183
Размер потока                            : 6,29 Гбайт (88%)
Заголовок                                : Sniper.Ghost.Shooter.2016.1080p.AMZN.WEB-DL
Библиотека кодирования                   : x264 core 148 r2623 d5b2374
Настройки программы                      : cabac=1 / ref=4 / deblock=1:-1:-1 / analyse=0x3:0x133 / me=umh / subme=9 / psy=1 / psy_rd=1.00:0.15 / mixed_ref=1 / me_range=24 / chroma_me=1 / trellis=2 / 8x8dct=1 / cqm=0 / deadzone=21,11 / fast_pskip=1 / chroma_qp_offset=-3 / threads=34 / lookahead_threads=5 / sliced_threads=0 / nr=150 / decimate=1 / interlaced=0 / bluray_compat=0 / constrained_intra=0 / bframes=8 / b_pyramid=2 / b_adapt=2 / b_bias=0 / direct=3 / weightb=1 / open_gop=0 / weightp=2 / keyint=120 / keyint_min=61 / scenecut=0 / intra_refresh=0 / rc_lookahead=120 / rc=crf / mbtree=1 / crf=18.0 / qcomp=0.60 / qpmin=0 / qpmax=69 / qpstep=4 / vbv_maxrate=15000 / vbv_bufsize=31250 / crf_max=0.0 / nal_hrd=vbr / filler=0 / ip_ratio=1.40 / aq=3:1.00
Язык                                     : English
Default                                  : Да
Forced                                   : Нет
Цветовой диапазон                        : Limited
Основные цвета                           : BT.709
Характеристики трансфера                 : BT.709
Коэффициенты матрицы                     : BT.709

Аудио #1
Идентификатор                            : 2
Формат                                   : AC-3
Формат/Информация                        : Audio Coding 3
Расширение режима                        : CM (complete main)
Параметр Endianness формата              : Big
Идентификатор кодека                     : A_AC3
Продолжительность                        : 1 ч. 39 м.
Вид битрейта                             : Постоянный
Битрейт                                  : 384 Кбит/сек
Каналы                                   : 6 каналов
Расположение каналов                     : Front: L C R, Side: L R, LFE
Частота                                  : 48,0 КГц
Метод сжатия                             : С потерями
Размер потока                            : 272 Мбайт (4%)
Заголовок                                : iTunes
Язык                                     : Russian
Default                                  : Да
Forced                                   : Да

Аудио #2
Идентификатор                            : 3
Формат                                   : E-AC-3
Формат/Информация                        : Audio Coding 3
Параметр Endianness формата              : Big
Идентификатор кодека                     : A_EAC3
Продолжительность                        : 1 ч. 39 м.
Вид битрейта                             : Постоянный
Битрейт                                  : 640 Кбит/сек
Каналы                                   : 6 каналов
Расположение каналов                     : Front: L C R, Side: L R, LFE
Частота                                  : 48,0 КГц
Метод сжатия                             : С потерями
Размер потока                            : 454 Мбайт (6%)
Язык                                     : English
Default                                  : Нет
Forced                                   : Нет

Текст #1
Идентификатор                            : 4
Формат                                   : UTF-8
Идентификатор кодека                     : S_TEXT/UTF8
Идентификатор кодека/Информация          : UTF-8 Plain Text
Язык                                     : Russian
Default                                  : Нет
Forced                                   : Нет

Текст #2
Идентификатор                            : 5
Формат                                   : UTF-8
Идентификатор кодека                     : S_TEXT/UTF8
Идентификатор кодека/Информация          : UTF-8 Plain Text
Заголовок                                : forced
Язык                                     : English
Default                                  : Нет
Forced                                   : Нет

Текст #3
Идентификатор                            : 6
Формат                                   : UTF-8
Идентификатор кодека                     : S_TEXT/UTF8
Идентификатор кодека/Информация          : UTF-8 Plain Text
Язык                                     : English
Default                                  : Нет
Forced                                   : Нет

Текст #4
Идентификатор                            : 7
Формат                                   : UTF-8
Идентификатор кодека                     : S_TEXT/UTF8
Идентификатор кодека/Информация          : UTF-8 Plain Text
Заголовок                                : SDH
Язык                                     : English
Default                                  : Нет
Forced                                   : Нет

Меню
00:00:00.000                             : en:1
00:11:49.584                             : en:2
00:16:06.257                             : en:3
00:21:24.533                             : en:4
00:26:35.468                             : en:5
00:34:49.086                             : en:6
00:41:14.262                             : en:7
00:45:08.663                             : en:8
00:49:00.061                             : en:9
00:53:00.926                             : en:10
01:02:11.434                             : en:11
01:10:38.232                             : en:12
01:14:05.981                             : en:13
01:20:28.196                             : en:14
01:25:45.429                             : en:15
01:34:35.500                             : en:16




Скриншоты:
[+] Всего файлов в раздаче - 1:
Sniper.Ghost.Shooter.2016.1080p.AMZN.WEB-DL.by.zzZGVvv.mkv7.14 GB

Текущая раздача:
ДатаКомментарии    РазмерПиры
2018-08-07 U Cнайпер: воин призрак / Sniper: Ghost Shooter (2016) WEB-DL 1080p | iTunes 7.14 GB ↑ 32 ↓ 14

Похожие раздачи по запросу - cнайпер:
2016-08-02 U Cнайпер: воин призрак / Sniper: Ghost Shooter (2016) WEB-DLRip-AVC | iTunes Russia 752.16 MB ↑ 195 ↓ 36
2016-08-02 U Cнайпер: воин призрак / Sniper: Ghost Shooter (2016) WEB-DLRip-AVC от ExKinoRay | iTunes Russia 1.46 GB ↑ 203 ↓ 58
2016-08-01 U Cнайпер: воин призрак / Sniper: Ghost Shooter (2016) WEB-DLRip от MegaPeer | iTunes 1К1.46 GB ↑ 337 ↓ 273
2016-08-01 U Cнайпер: воин призрак / Sniper: Ghost Shooter (2016) WEB-DL 720p | iTunes 3.11 GB ↑ 168 ↓ 95
2016-08-01 U Cнайпер: воин призрак / Sniper: Ghost Shooter (2016) WEB-DL 1080p | iTunes 3.83 GB ↑ 155 ↓ 200
2016-08-01 U Cнайпер: воин призрак / Sniper: Ghost Shooter (2016) WEB-DLRip от MegaPeer | iTunes 745.85 MB ↑ 604 ↓ 11

Отзывы
Зарегистрируйтесь чтобы добавить комментарий.
Обратная связь
Copyleft ©