↑↓Torrent.by
Поиск
Логин: Регистрация
Пароль: Восстановить пароль
Загрузка...

День патриота / Patriots Day (2016) BDRip | P

Скачать den-patriota-patriots-day-2016-bdrip-p.torrent
U Магнитная ссылка Размер: 1.46 GB Раздают: 273 Качают: 49 Добавлен: 2018-08-08 07:37:04
День патриота / Patriots Day (2016) BDRip | P

День патриота / Patriots Day

Страна: США
Производство: CBS Films, Closest to the Hole Productions
Год выпуска: 2016
Жанр:  триллер, драма, история
Продолжительность: 02:13:09

Режиссер: Питер Берг
Авторы сценария: Питер Берг, Мэтт Кук, Джошуа Зитумер

В ролях: Марк Уолберг, Дикки Эклунд мл., Майкл Маршан, Джон Гудман, Кристофер О’Ши, Рэйчел Броснахэн, Джейк Пикинг, Лана Кондор

Описание: Взгляд на бостонскую трагедию 2013 года глазами комиссара полиции Эда Дэвиса. Два взрыва на марафонском забеге оглушили мировую общественность, но не Эда и его коллег, которые разворачивают розыск террористов по горячим следам...

Перевод: Профессиональный (многоголосый, закадровый) | СВ Студия (ненормативная лексика)
Субтитры: нет

Качество: BDRip | исходник Patriots.Day.2016.1080p.Blu-ray.AVC.DTS-HD.MA.7.1-HDChina
Формат: AVI
Видео кодек: XviD
Аудио кодек: АС3
Видео: 720x304 (2.35:1), 23.976 fps, XviD build 67 ~1 176 kbps avg
Аудио: 48.0 kHz, AC3 Dolby Digital, 3/2 (L,C,R,l,r) + LFE ch, ~384 kbps

Бюджет: $45 000 000
Дата премьеры (мир): 17 ноября 2016

Семпл

Релиз от: ylnian & filmsclub


[+] Media Info
General
Полное имя                               : Patriots.Day.2016.BDRip.1500-ylnian.avi
Формат                                   : AVI
Формат/Информация                        : Audio Video Interleave
Размер файла                             : 1,46 Гбайт
Продолжительность                        : 2 ч. 13 м.
Общий поток                              : 1569 Кбит/сек
Программа кодирования                    : VirtualDubMod 1.5.10.3 | (build 2550/release)
Библиотека кодирования                   : VirtualDubMod build 2550/release

Видео
Идентификатор                            : 0
Формат                                   : MPEG-4 Visual
Профиль формата                          : Advanced Simple@L5
Настройки формата                        : BVOP1
Параметр BVOP формата                    : 1
Параметр QPel формата                    : Нет
Параметр GMC формата                     : Без точки перехода
Параметр матрицы формата                 : Default (MPEG)
Идентификатор кодека                     : XVID
Идентификатор кодека/Подсказка           : XviD
Продолжительность                        : 2 ч. 13 м.
Битрейт                                  : 1176 Кбит/сек
Ширина                                   : 720 пикселей
Высота                                   : 304 пикселя
Соотношение сторон                       : 2,35:1
Частота кадров                           : 23,976 (24000/1001) кадра/сек
Цветовое пространство                    : YUV
Субдискретизация насыщенности            : 4:2:0
Битовая глубина                          : 8 бит
Тип развёртки                            : Прогрессивная
Метод сжатия                             : С потерями
Бит/(Пиксели*Кадры)                      : 0.224
Размер потока                            : 1,09 Гбайт (75%)
Библиотека кодирования                   : XviD 67

Аудио
Идентификатор                            : 1
Формат                                   : AC-3
Формат/Информация                        : Audio Coding 3
Идентификатор кодека                     : 2000
Продолжительность                        : 2 ч. 13 м.
Вид битрейта                             : Постоянный
Битрейт                                  : 384 Кбит/сек
Каналы                                   : 6 каналов
Расположение каналов                     : Front: L C R, Side: L R, LFE
Частота                                  : 48,0 КГц
Частота кадров                           : 31,250 кадров/сек (1536 SPF)
Битовая глубина                          : 16 бит
Метод сжатия                             : С потерями
Размер потока                            : 366 Мбайт (24%)
Выравнивание                             : Разделение по промежуткам
Продолжительность промежутка             : 42  мс. (1,00 видеокадр)
Время предзагрузки промежутка            : 500  мс.
Заголовок                                : RUS - MVO - СВ Студия



Скриншоты:
[+] Всего файлов в раздаче - 1:
Patriots.Day.2016.BDRip.1500-ylnian.avi1.46 GB

Текущая раздача:
ДатаКомментарии    РазмерПиры
2018-08-08 U День патриота / Patriots Day (2016) BDRip | P 1.46 GB ↑ 273 ↓ 49

Показать еще раздачи по запросу день:
2018-10-12 U Впереди день [01-08 из 08] (2018) HDTVRip-AVC от Files-x 6.22 GB ↑ 76 ↓ 96
2018-10-12 U Впереди день [01-08 из 08] (2018) HDTVRip от Files-x 4.81 GB ↑ 109 ↓ 161
2018-10-12 U Впереди день [01-06 из 08] (2018) HDTVRip от Files-x 3.62 GB ↑ 46 ↓ 41
2018-09-06 U Один день конца света / The End? / In un giorno la fine (2017) WEBRip 720p | L1 1.23 GB ↑ 80 ↓ 8
2018-09-06 U Один день конца света / The End? / In un giorno la fine (2017) WEB-DL 1080p | L1 3.39 GB ↑ 65 ↓ 12
2018-09-06 U Один день конца света / The End? / In un giorno la fine (2017) WEBRip-AVC | L1 770.34 MB ↑ 128 ↓ 13
2018-08-31 U Код доступа. Падение Титана: последний день СССР (2018) SATRip 546.12 MB ↑ 41 ↓ 9

Отзывы
Зарегистрируйтесь чтобы добавить комментарий.
Обратная связь
Copyleft ©