↑↓Torrent.by
Поиск
Логин: Регистрация
Пароль: Восстановить пароль
Загрузка...

Мстители: Война бесконечности / Avengers: Infinity War (2018) BDRemux 2160p от ExKinoRay | 4K | HDR | iTunes

Скачать mstiteli-voyna-beskonechnosti-avengers-infinity-war-2018-bdremux-2160p-ot-exkinoray-4k-hdr-itunes.torrent
U Магнитная ссылка Размер: 53.77 GB Раздают: 146 Качают: 146 Добавлен: 2018-08-08 07:37:13
Мстители: Война бесконечности / Avengers: Infinity War (2018) BDRemux 2160p от ExKinoRay | 4K | HDR | iTunes

Название: Мстители: Война бесконечности
Оригинальное название: Avengers: Infinity War
Год выхода: 2018
Жанр: Фантастика, фэнтези, боевик, приключения
Режиссер: Энтони Руссо, Джо Руссо
В ролях: Роберт Дауни мл., Крис Хемсворт, Марк Руффало, Крис Эванс, Скарлетт Йоханссон, Дон Чидл, Бенедикт Камбербэтч, Том Холланд (II), Чэдвик Боузмэн, Зои Салдана

О фильме: Пока Мстители и их союзники продолжают защищать мир от различных опасностей, с которыми не смог бы справиться один супергерой, новая угроза возникает из космоса: Танос. Межгалактический тиран преследует цель собрать все шесть Камней Бесконечности — артефакты невероятной силы, с помощью которых можно менять реальность по своему желанию. Всё, с чем Мстители сталкивались ранее, вело к этому моменту — судьба Земли никогда ещё не была столь неопределённой.

Страна: США
Студия: Marvel Studios
Продолжительность: 02:29:21
Перевод: Дублированный | iTunes

Качество: BDRemux 2160p
Видео: MPEG-H HEVC HDR Video, 3840x2160, 46 Mbit/s, 23.976 fps
Звук:
Аудио #01: 48 kHz, AC3, 5.1, 384 Kbps | iTunes | RUS |
Аудио #02: 48 kHz, TrueHD, 7.1, 4534 Kbps | Оригинал |  ENG |
Аудио #03: 48 kHz, AC3, 5.1, 640 Kbps | Оригинал |  ENG |
Субтитры: Русские (forced, full, SDH), английские

Релиз:

Автор релиза:


[+] MI
General
Unique ID                   : 118797447569187755494922017895818104307 (0x595F8E607020EA8859B39C1CBCA28DF3)
Complete name               : D:Video111Avengers.Infinity.War.2018.BDREMUX.2160p.4K.UHD.HEVC.HDR.ExKinoRay.mkv
Format                      : Matroska
Format version              : Version 4 / Version 2
File size                   : 53.8 GiB
Duration                    : 2 h 29 min
Overall bit rate mode       : Variable
Overall bit rate            : 51.4 Mb/s
Movie name                  : Avengers Infinity War 2018 from ExKinoRay
Encoded date                : UTC 2018-08-07 13:01:01
Writing application         : mkvmerge v23.0.0 ('The Bride Said No') 64-bit
Writing library             : libebml v1.3.6 + libmatroska v1.4.9

Video
ID                          : 1
Format                      : HEVC
Format/Info                 : High Efficiency Video Coding
Commercial name             : HDR10
Format profile              : Main 10@L5.1@High
Codec ID                    : V_MPEGH/ISO/HEVC
Duration                    : 2 h 29 min
Bit rate                    : 45.9 Mb/s
Width                       : 3 840 pixels
Height                      : 2 160 pixels
Display aspect ratio        : 16:9
Frame rate mode             : Constant
Frame rate                  : 23.976 (24000/1001) FPS
Color space                 : YUV
Chroma subsampling          : 4:2:0 (Type 2)
Bit depth                   : 10 bits
Bits/(Pixel*Frame)          : 0.231
Stream size                 : 47.9 GiB (89%)
Writing library             : ATEME Titan File 3.8.16 (4.8.16.0)      
Language                    : English
Default                     : Yes
Forced                      : No
Color range                 : Limited
Color primaries             : BT.2020
Transfer characteristics    : PQ
Matrix coefficients         : BT.2020 non-constant
Mastering display color pri : Display P3
Mastering display luminance : min: 0.0001 cd/m2, max: 1000 cd/m2

Audio #1
ID                          : 2
Format                      : AC-3
Format/Info                 : Audio Coding 3
Commercial name             : Dolby Digital
Codec ID                    : A_AC3
Duration                    : 2 h 29 min
Bit rate mode               : Constant
Bit rate                    : 384 kb/s
Channel(s)                  : 6 channels
Channel positions           : Front: L C R, Side: L R, LFE
Sampling rate               : 48.0 kHz
Frame rate                  : 31.250 FPS (1536 SPF)
Bit depth                   : 16 bits
Compression mode            : Lossy
Stream size                 : 411 MiB (1%)
Title                       : iTunes
Language                    : Russian
Service kind                : Complete Main
Default                     : Yes
Forced                      : Yes

Audio #2
ID                          : 3
Format                      : TrueHD
Format profile              : TrueHD+Atmos / TrueHD
Codec ID                    : A_TRUEHD
Duration                    : 2 h 29 min
Bit rate mode               : Variable
Bit rate                    : 4 534 kb/s
Maximum bit rate            : 6 930 kb/s
Channel(s)                  : 8 channels
Channel positions           : Front: L C R, Side: L R, Back: L R, LFE
Sampling rate               : 48.0 kHz
Frame rate                  : 1 200.000 FPS (40 SPF)
Compression mode            : Lossless
Delay relative to video     : 32 ms
Stream size                 : 4.73 GiB (9%)
Title                       : Original
Language                    : English
Default                     : No
Forced                      : No
Number of dynamic objects   : 13
Bed channel count           : 1 channel
Bed channel configuration   : LFE

Audio #3
ID                          : 4
Format                      : AC-3
Format/Info                 : Audio Coding 3
Commercial name             : Dolby Digital
Codec ID                    : A_AC3
Duration                    : 2 h 29 min
Bit rate mode               : Constant
Bit rate                    : 640 kb/s
Channel(s)                  : 6 channels
Channel positions           : Front: L C R, Side: L R, LFE
Sampling rate               : 48.0 kHz
Frame rate                  : 31.250 FPS (1536 SPF)
Bit depth                   : 16 bits
Compression mode            : Lossy
Delay relative to video     : 31 ms
Stream size                 : 684 MiB (1%)
Language                    : English
Service kind                : Complete Main
Default                     : No
Forced                      : No

Text #1
ID                          : 5
Format                      : UTF-8
Codec ID                    : S_TEXT/UTF8
Codec ID/Info               : UTF-8 Plain Text
Duration                    : 2 h 12 min
Bit rate                    : 0 b/s
Count of elements           : 14
Stream size                 : 373 Bytes (0%)
Title                       : Forced
Language                    : Russian
Default                     : Yes
Forced                      : Yes

Text #2
ID                          : 6
Format                      : UTF-8
Codec ID                    : S_TEXT/UTF8
Codec ID/Info               : UTF-8 Plain Text
Duration                    : 2 h 28 min
Bit rate                    : 64 b/s
Count of elements           : 1596
Stream size                 : 70.4 KiB (0%)
Title                       : Full
Language                    : Russian
Default                     : No
Forced                      : No

Text #3
ID                          : 7
Format                      : UTF-8
Codec ID                    : S_TEXT/UTF8
Codec ID/Info               : UTF-8 Plain Text
Duration                    : 2 h 28 min
Bit rate                    : 76 b/s
Count of elements           : 2085
Stream size                 : 83.2 KiB (0%)
Title                       : SDH
Language                    : Russian
Default                     : No
Forced                      : No

Text #4
ID                          : 8
Format                      : UTF-8
Codec ID                    : S_TEXT/UTF8
Codec ID/Info               : UTF-8 Plain Text
Duration                    : 2 h 28 min
Bit rate                    : 42 b/s
Count of elements           : 1724
Stream size                 : 46.1 KiB (0%)
Title                       : Full
Language                    : English
Default                     : No
Forced                      : No

Text #5
ID                          : 9
Format                      : UTF-8
Codec ID                    : S_TEXT/UTF8
Codec ID/Info               : UTF-8 Plain Text
Duration                    : 2 h 28 min
Bit rate                    : 49 b/s
Count of elements           : 2067
Stream size                 : 53.9 KiB (0%)
Title                       : SDH
Language                    : English
Default                     : No
Forced                      : No

Text #6
ID                          : 10
Format                      : UTF-8
Codec ID                    : S_TEXT/UTF8
Codec ID/Info               : UTF-8 Plain Text
Duration                    : 2 h 28 min
Bit rate                    : 70 b/s
Count of elements           : 2067
Stream size                 : 76.5 KiB (0%)
Title                       : SDH Colored
Language                    : English
Default                     : No
Forced                      : No

Menu
00:00:00.000                : en:00:00:00.000
00:11:28.730                : en:00:11:28.730
00:18:13.884                : en:00:18:13.884
00:27:23.809                : en:00:27:23.809
00:35:48.813                : en:00:35:48.813
00:42:23.541                : en:00:42:23.541
00:54:12.875                : en:00:54:12.875
00:59:36.740                : en:00:59:36.740
01:05:07.153                : en:01:05:07.153
01:10:53.666                : en:01:10:53.666
01:17:06.956                : en:01:17:06.956
01:24:14.758                : en:01:24:14.758
01:31:08.004                : en:01:31:08.004
01:42:00.406                : en:01:42:00.406
01:45:57.810                : en:01:45:57.810
01:53:04.069                : en:01:53:04.069
01:58:52.917                : en:01:58:52.917
02:03:58.181                : en:02:03:58.181
02:11:13.282                : en:02:11:13.282
02:17:31.285                : en:02:17:31.285



Скриншоты:
[+] Всего файлов в раздаче - 1:
Avengers.Infinity.War.2018.BDREMUX.2160p.4K.UHD.HEVC.HDR.ExKinoRay.mkv53.77 GB

Текущая раздача:
ДатаКомментарии    РазмерПиры
2018-08-08 U Мстители: Война бесконечности / Avengers: Infinity War (2018) BDRemux 2160p от ExKinoRay | 4K | HDR | iTunes 53.77 GB ↑ 146 ↓ 146

Показать еще раздачи по запросу мстители:
2018-08-12 U Мстители: Война бесконечности / Avengers: Infinity War (2018) HDRip от Scarabey | iTunes 799.41 MB ↑ 48 ↓ 30
2018-08-08 U Мстители: Война бесконечности / Avengers: Infinity War (2018) BDRip-HEVC 1080p от ХиМиК | iTunes 7.30 GB ↑ 117 ↓ 90
2018-08-07 U Мстители: Война бесконечности / Avengers: Infinity War (2018) WEBRip-AVC | D | Open Matte 2.90 GB ↑ 95 ↓ 41
2018-08-06 U Мстители: Война бесконечности / Avengers: Infinity War (2018) WEBRip от Scarabey | D | Open Matte 1.45 GB ↑ 71 ↓ 23
2018-08-06 U Мстители: Война бесконечности / Avengers: Infinity War (2018) WEBRip от Scarabey | D | Open Matte 2.17 GB ↑ 60 ↓ 20
2018-08-05 U Мстители: Война бесконечности / Avengers: Infinity War (2018) WEBRip-AVC | D | Open Matte 748.62 MB ↑ 23 ↓ 10
2018-08-05 U Мстители: Война бесконечности / Avengers: Infinity War (2018) WEBRip | Open Matte | iTunes 2.18 GB ↑ 36 ↓ 22

Отзывы
Зарегистрируйтесь чтобы добавить комментарий.
Обратная связь
Copyleft ©