↑↓Torrent.by
Поиск
Логин: Регистрация
Пароль: Восстановить пароль
Загрузка...

День патриота / Patriots Day (2016) BDRip 720p | P, A

Скачать den-patriota-patriots-day-2016-bdrip-720p-p-a.torrent
U Магнитная ссылка Размер: 9.65 GB Раздают: 37 Качают: 30 Добавлен: 2018-08-08 07:38:40
День патриота / Patriots Day (2016) BDRip 720p | P, A

Название: День патриота
Оригинальное название: Patriots Day
Год выхода: 2016
Жанр: триллер, драма, криминал, история
Режиссер: Питер Берг
В ролях: Марк Уолберг, Кевин Бейкон, Джон Гудман, Дж.К. Симмонс, Мишель Монахэн, Алекс Вулф, Темо Меликидзе, Джимми О. Ян, Майкл Бич, Рэйчел Броснахэн, Дикки Эклунд мл., Майкл Маршан, Рет Кидд, Фрэнк Чарновски, Кристофер О’Ши, Джейк Пикинг, Лана Кондор, Джерри Двайер мл., Дэвид Ортиc, Ханди Александер

О фильме:
Взгляд на бостонскую трагедию 2013 года глазами комиссара полиции Эда Дэвиса. Два взрыва на марафонском забеге оглушили мировую общественность, но не Эда и его коллег, которые разворачивают розыск террористов по горячим следам.

Страна: США
Продолжительность: 02:13:09
Перевод: Профессиональный (многоголосый закадровый) + Авторский (одноголосый закадровый)

Файл
Формат: MKV
Исходник: Patriots.Day.2016.720p.BluRay.DTS.x264-VietHD
Видео: 1280x534 at 23.976 fps, x264@L4.1, ~8000 kbps avg
Аудио#1: Russian: 48 kHz, AC3, 3/2 (L,C,R,l,r) + LFE ch, ~640.00 kbps avg |Многоголосый закадровый, СВ Студия| (ненормативная лексика)
Аудио#2: Russian: 48 kHz, AC3, 3/2 (L,C,R,l,r) + LFE ch, ~640.00 kbps avg |Одноголосый закадровый, Вадим Назаров|
Аудио#3: Russian: 48 kHz, AC3, 3/2 (L,C,R,l,r) + LFE ch, ~448.00 kbps avg |Одноголосый закадровый, Михаил Яроцкий (ненормативная лексика)
Аудио#4: English: 48 kHz, AC3, 3/2 (L,C,R,l,r) + LFE ch, ~640.00 kbps avg
Cубтитры: Русские (форсированные, СВ Студия), английские (full, SDH, SDH-colored), французские, португальские, испанские

Релиз от: ylnian & filmsclub


[+] Доп. информация
• Заказ и выкуп перевода - ylnian и Ко
• Сохранены главы с BD
• За русские форсированные субтитры спасибо dalemake
• За английские SDH-colored субтитры спасибо Olyanchik
• За перевод Вадима Назарова спасибо пользователям форума е180: литти_07, luka69, 2vova2, Nadoelo, сhontvari, SokolF, xerman13, DIEnis82, uchitel538, pestel, stevnin, GaryH, tekst11
• За перевод Михаила Яроцкого спасибо пользователям форума "Переулок Переводмана": dikii и mihaildns



[+] x264
x264 [info]: frame I:1418  Avg QP:13.21  size:111552
x264 [info]: frame P:46522 Avg QP:15.29  size: 59514
x264 [info]: frame B:143606 Avg QP:16.69  size: 35249
x264 [info]: consecutive B-frames:  3.0%  7.9% 11.4% 14.7% 15.0% 37.8%  5.2%  1.7%  3.3%



[+] MediaInfo
General
Unique ID                                : 311066987828231793616346769006970944765 (0xEA055299A40DFA9B1CC58D5FE4DE3CFD)
Complete name                            : Patriots.Day.2016.BDRip.720p-ylnian.mkv
Format                                   : Matroska
Format version                           : Version 4 / Version 2
File size                                : 9.65 GiB
Duration                                 : 2 h 13 min
Overall bit rate                         : 10.4 Mb/s
Movie name                               : Patriots.Day.2016.BDRip.720p-ylnian
Encoded date                             : UTC 2018-08-07 10:48:41
Writing application                      : mkvmerge v25.0.0 ('Prog Noir') 64-bit
Writing library                          : libebml v1.3.6 + libmatroska v1.4.9

Video
ID                                       : 1
Format                                   : AVC
Format/Info                              : Advanced Video Codec
Format profile                           : High@L4.1
Format settings                          : CABAC / 12 Ref Frames
Format settings, CABAC                   : Yes
Format settings, RefFrames               : 12 frames
Codec ID                                 : V_MPEG4/ISO/AVC
Duration                                 : 2 h 13 min
Bit rate                                 : 8 000 kb/s
Width                                    : 1 280 pixels
Height                                   : 534 pixels
Display aspect ratio                     : 2.40:1
Frame rate mode                          : Constant
Frame rate                               : 23.976 (24000/1001) FPS
Color space                              : YUV
Chroma subsampling                       : 4:2:0
Bit depth                                : 8 bits
Scan type                                : Progressive
Bits/(Pixel*Frame)                       : 0.488
Stream size                              : 7.44 GiB (77%)
Title                                    : Patriots.Day.2016.720p.BluRay.DTS.x264-VietHD
Writing library                          : x264 core 148 r2744kMod b97ae06
Encoding settings                        : cabac=1 / ref=12 / deblock=1:1:-3 / analyse=0x3:0x133 / me=umh / subme=10 / psy=1 / fade_compensate=0.00 / psy_rd=1.00:0.00 / mixed_ref=1 / me_range=24 / chroma_me=1 / trellis=2 / 8x8dct=1 / cqm=0 / deadzone=21,11 / fast_pskip=0 / chroma_qp_offset=-2 / threads=17 / lookahead_threads=2 / sliced_threads=0 / nr=0 / decimate=0 / interlaced=0 / bluray_compat=0 / constrained_intra=0 / bframes=8 / b_pyramid=2 / b_adapt=2 / b_bias=0 / direct=3 / weightb=1 / open_gop=0 / weightp=2 / keyint=250 / keyint_min=23 / scenecut=40 / intra_refresh=0 / rc_lookahead=60 / rc=2pass / mbtree=0 / bitrate=8000 / ratetol=1.0 / qcomp=0.60 / qpmin=0 / qpmax=69 / qpstep=4 / cplxblur=20.0 / qblur=0.5 / vbv_maxrate=62500 / vbv_bufsize=78125 / nal_hrd=none / filler=0 / ip_ratio=1.30 / pb_ratio=1.20 / aq=3:0.77
Language                                 : English
Default                                  : Yes
Forced                                   : Yes
Color range                              : Limited
Matrix coefficients                      : BT.709

Audio #1
ID                                       : 2
Format                                   : AC-3
Format/Info                              : Audio Coding 3
Codec ID                                 : A_AC3
Duration                                 : 2 h 13 min
Bit rate mode                            : Constant
Bit rate                                 : 640 kb/s
Channel(s)                               : 6 channels
Channel positions                        : Front: L C R, Side: L R, LFE
Sampling rate                            : 48.0 kHz
Frame rate                               : 31.250 FPS (1536 SPF)
Bit depth                                : 16 bits
Compression mode                         : Lossy
Stream size                              : 610 MiB (6%)
Title                                    : MVO - СВ Студия
Language                                 : Russian
Service kind                             : Complete Main
Default                                  : Yes
Forced                                   : Yes

Audio #2
ID                                       : 3
Format                                   : AC-3
Format/Info                              : Audio Coding 3
Codec ID                                 : A_AC3
Duration                                 : 2 h 13 min
Bit rate mode                            : Constant
Bit rate                                 : 640 kb/s
Channel(s)                               : 6 channels
Channel positions                        : Front: L C R, Side: L R, LFE
Sampling rate                            : 48.0 kHz
Frame rate                               : 31.250 FPS (1536 SPF)
Bit depth                                : 16 bits
Compression mode                         : Lossy
Stream size                              : 610 MiB (6%)
Title                                    : VO - Вадим Назаров
Language                                 : Russian
Service kind                             : Complete Main
Default                                  : No
Forced                                   : No

Audio #3
ID                                       : 4
Format                                   : AC-3
Format/Info                              : Audio Coding 3
Codec ID                                 : A_AC3
Duration                                 : 2 h 13 min
Bit rate mode                            : Constant
Bit rate                                 : 448 kb/s
Channel(s)                               : 6 channels
Channel positions                        : Front: L C R, Side: L R, LFE
Sampling rate                            : 48.0 kHz
Frame rate                               : 31.250 FPS (1536 SPF)
Bit depth                                : 16 bits
Compression mode                         : Lossy
Stream size                              : 427 MiB (4%)
Title                                    : VO - Михаил Яроцкий
Language                                 : Russian
Service kind                             : Complete Main
Default                                  : No
Forced                                   : No

Audio #4
ID                                       : 5
Format                                   : AC-3
Format/Info                              : Audio Coding 3
Codec ID                                 : A_AC3
Duration                                 : 2 h 13 min
Bit rate mode                            : Constant
Bit rate                                 : 640 kb/s
Channel(s)                               : 6 channels
Channel positions                        : Front: L C R, Side: L R, LFE
Sampling rate                            : 48.0 kHz
Frame rate                               : 31.250 FPS (1536 SPF)
Bit depth                                : 16 bits
Compression mode                         : Lossy
Stream size                              : 610 MiB (6%)
Language                                 : English
Service kind                             : Complete Main
Default                                  : No
Forced                                   : No

Text #1
ID                                       : 6
Format                                   : ASS
Codec ID                                 : S_TEXT/ASS
Codec ID/Info                            : Advanced Sub Station Alpha
Duration                                 : 2 h 1 min
Bit rate                                 : 5 b/s
Count of elements                        : 57
Compression mode                         : Lossless
Stream size                              : 5.05 KiB (0%)
Title                                    : forced
Language                                 : Russian
Default                                  : Yes
Forced                                   : Yes

Text #2
ID                                       : 7
Format                                   : UTF-8
Codec ID                                 : S_TEXT/UTF8
Codec ID/Info                            : UTF-8 Plain Text
Duration                                 : 2 h 5 min
Bit rate                                 : 113 b/s
Count of elements                        : 1677
Stream size                              : 104 KiB (0%)
Title                                    : СВ Студия
Language                                 : Russian
Default                                  : No
Forced                                   : No

Text #3
ID                                       : 8
Format                                   : UTF-8
Codec ID                                 : S_TEXT/UTF8
Codec ID/Info                            : UTF-8 Plain Text
Duration                                 : 2 h 12 min
Bit rate                                 : 82 b/s
Count of elements                        : 2024
Stream size                              : 79.9 KiB (0%)
Title                                    : SDH
Language                                 : English
Default                                  : No
Forced                                   : No

Text #4
ID                                       : 9
Format                                   : UTF-8
Codec ID                                 : S_TEXT/UTF8
Codec ID/Info                            : UTF-8 Plain Text
Duration                                 : 2 h 12 min
Bit rate                                 : 91 b/s
Count of elements                        : 2024
Stream size                              : 88.8 KiB (0%)
Title                                    : SDH-Colored
Language                                 : English
Default                                  : No
Forced                                   : No

Text #5
ID                                       : 10
Format                                   : UTF-8
Codec ID                                 : S_TEXT/UTF8
Codec ID/Info                            : UTF-8 Plain Text
Duration                                 : 2 h 12 min
Bit rate                                 : 74 b/s
Count of elements                        : 1873
Stream size                              : 72.7 KiB (0%)
Language                                 : English
Default                                  : No
Forced                                   : No

Text #6
ID                                       : 11
Format                                   : UTF-8
Codec ID                                 : S_TEXT/UTF8
Codec ID/Info                            : UTF-8 Plain Text
Duration                                 : 2 h 12 min
Bit rate                                 : 87 b/s
Count of elements                        : 2259
Stream size                              : 85.2 KiB (0%)
Language                                 : French
Default                                  : No
Forced                                   : No

Text #7
ID                                       : 12
Format                                   : UTF-8
Codec ID                                 : S_TEXT/UTF8
Codec ID/Info                            : UTF-8 Plain Text
Duration                                 : 2 h 5 min
Bit rate                                 : 57 b/s
Count of elements                        : 1599
Stream size                              : 53.2 KiB (0%)
Language                                 : Portuguese
Default                                  : No
Forced                                   : No

Text #8
ID                                       : 13
Format                                   : UTF-8
Codec ID                                 : S_TEXT/UTF8
Codec ID/Info                            : UTF-8 Plain Text
Duration                                 : 2 h 12 min
Bit rate                                 : 70 b/s
Count of elements                        : 1842
Stream size                              : 68.0 KiB (0%)
Language                                 : Spanish
Default                                  : No
Forced                                   : No

Menu
00:00:00.000                             : en:00:00:00.000
00:08:30.510                             : en:00:08:30.510
00:17:48.067                             : en:00:17:48.067
00:24:56.328                             : en:00:24:56.328
00:32:35.954                             : en:00:32:35.954
00:41:44.502                             : en:00:41:44.502
00:49:23.002                             : en:00:49:23.002
00:58:35.512                             : en:00:58:35.512
01:07:10.026                             : en:01:07:10.026
01:19:05.157                             : en:01:19:05.157
01:24:20.055                             : en:01:24:20.055
01:33:48.623                             : en:01:33:48.623
01:45:17.311                             : en:01:45:17.311
01:50:24.618                             : en:01:50:24.618
01:57:57.070                             : en:01:57:57.070
02:05:25.518                             : en:02:05:25.518



Скриншоты:
[+] Всего файлов в раздаче - 1:
Patriots.Day.2016.BDRip.720p-ylnian.mkv9.65 GB

Текущая раздача:
ДатаКомментарии    РазмерПиры
2018-08-08 U День патриота / Patriots Day (2016) BDRip 720p | P, A 9.65 GB ↑ 37 ↓ 30

Показать еще раздачи по запросу день:
2018-10-12 U Впереди день [01-08 из 08] (2018) HDTVRip-AVC от Files-x 6.22 GB ↑ 76 ↓ 96
2018-10-12 U Впереди день [01-08 из 08] (2018) HDTVRip от Files-x 4.81 GB ↑ 109 ↓ 161
2018-10-12 U Впереди день [01-06 из 08] (2018) HDTVRip от Files-x 3.62 GB ↑ 46 ↓ 41
2018-09-06 U Один день конца света / The End? / In un giorno la fine (2017) WEBRip 720p | L1 1.23 GB ↑ 80 ↓ 8
2018-09-06 U Один день конца света / The End? / In un giorno la fine (2017) WEB-DL 1080p | L1 3.39 GB ↑ 65 ↓ 12
2018-09-06 U Один день конца света / The End? / In un giorno la fine (2017) WEBRip-AVC | L1 770.34 MB ↑ 128 ↓ 13
2018-08-31 U Код доступа. Падение Титана: последний день СССР (2018) SATRip 546.12 MB ↑ 41 ↓ 9

Отзывы
Зарегистрируйтесь чтобы добавить комментарий.
Обратная связь
Copyleft ©