↑↓Torrent.by
Поиск
Логин: Регистрация
Пароль: Восстановить пароль
Загрузка...

Садко (2017) WEB-DL 720p | iTunes

Скачать sadko-2017-web-dl-720p-itunes.torrent
U Магнитная ссылка Размер: 2.47 GB Раздают: 36 Качают: 12 Добавлен: 2018-08-08 07:39:23
Садко (2017) WEB-DL 720p | iTunes

Название: Садко
Год выхода: 2017
Жанр: комедия, семейный
Режиссер: Максим Волков, Виталий Мухаметзянов
В ролях: Тимур Гарипов, Любовь Аксенова, Екатерина Варнава, Мария Шалаева, Михаил Ефремов, Дмитрий Филимонов, Данис Галиуллин, Руслан Ронич, Анатолий Константинов, Диомид Виноградов

О фильме:
Хоть беги, хоть не беги, а от любви нигде не скрыться. Ни в палатах новгородского князя, ни на дне морском. Особенно, если зовут тебя Садко, и ты симпатичный веселый парень. К тому же, на гуслях играть мастак. Вот только за настоящую любовь еще и повоевать придется. Да не с кем-нибудь, а с подводной ведьмой Барракудой. Но любовь все равно победит. Вот увидите!

Страна: Россия
Студия: Кинокомпания СТВ, Анимационная студия Мельница
Продолжительность: 01:17:50
Перевод: не требуется

Файл
Кодек: H.264
Качество: WEB-DL 720p
Видео: AVC, 1280x536 (2.40:1), 25 fps ~ 4060 Kbps
Звук: AC3, 48 KHz, 6 ch ~ 384 Kb/s
Субтитры: отсутствуют


[+] MI:

Общее
Уникальный идентификатор : 171657165100610944919816983157972714298 (0x8123F7AA620F90DDBA08CCC6DE6CC33A)
Полное имя : Q:TorFСадко.2O18.O.WEB-DL.72Op.mkv
Формат : Matroska
Версия формата : Version 2
Размер файла : 2,47 Гбайт
Продолжительность : 1 ч. 17 м.
Общий поток : 4536 Кбит/сек
Дата кодирования : UTC 2018-07-10 19:41:00
Программа кодирования : mkvmerge v8.3.0 ('Over the Horizon') 64bit
Библиотека кодирования : libebml v1.3.1 + libmatroska v1.4.2
DURATION : 01:17:50.000000000
NUMBER_OF_FRAMES : 116750
NUMBER_OF_BYTES : 2422896333
_STATISTICS_WRITING_APP : mkvmerge v8.3.0 ('Over the Horizon') 64bit
_STATISTICS_WRITING_DATE_UTC : 2018-07-10 19:41:00
_STATISTICS_TAGS : BPS DURATION NUMBER_OF_FRAMES NUMBER_OF_BYTES

Видео
Идентификатор : 1
Формат : AVC
Формат/Информация : Advanced Video Codec
Профиль формата : High@L4.1
Параметр CABAC формата : Да
Параметр ReFrames формата : 4 кадра
Идентификатор кодека : V_MPEG4/ISO/AVC
Продолжительность : 1 ч. 17 м.
Битрейт : 4062 Кбит/сек
Ширина : 1280 пикселей
Высота : 536 пикселей
Соотношение сторон : 2,40:1
Частота кадров : 25,000 кадров/сек
Цветовое пространство : YUV
Субдискретизация насыщенности : 4:2:0
Битовая глубина : 8 бит
Тип развёртки : Прогрессивная
Бит/(Пиксели*Кадры) : 0.237
Размер потока : 2,21 Гбайт (90%)
Default : Да
Forced : Нет

Аудио
Идентификатор : 2
Формат : AC-3
Формат/Информация : Audio Coding 3
Расширение режима : CM (complete main)
Идентификатор кодека : A_AC3
Продолжительность : 1 ч. 17 м.
Вид битрейта : Постоянный
Битрейт : 384 Кбит/сек
Каналы : 6 каналов
Расположение каналов : Front: L C R, Side: L R, LFE
Частота : 48,0 КГц
Битовая глубина : 16 бит
Метод сжатия : С потерями
Размер потока : 214 Мбайт (8%)
Язык : Russian
Default : Да
Forced : Нет

Меню
00:00:00.000 : en:Глава 1
00:03:48.120 : en:Глава 2
00:09:16.920 : en:Глава 3
00:15:20.040 : en:Глава 4
00:21:35.040 : en:Глава 5
00:27:05.560 : en:Глава 6
00:32:45.280 : en:Глава 7
00:38:49.280 : en:Глава 8
00:45:06.080 : en:Глава 9
00:51:28.040 : en:Глава 10
00:56:01.440 : en:Глава 11
01:01:33.000 : en:Глава 12
01:07:03.440 : en:Глава 13



Скриншоты:
[+] Всего файлов в раздаче - 1:
Садко.2O18.O.WEB-DL.72Op.mkv2.47 GB

Текущая раздача:
ДатаКомментарии    РазмерПиры
2018-08-08 U Садко (2017) WEB-DL 720p | iTunes 2.47 GB ↑ 36 ↓ 12

Похожие раздачи по запросу - садко:
2018-07-16 U Садко (2017) WEB-DLRip-AVC от OlLanDGroup | iTunes 1К745.70 MB ↑ 150 ↓ 23
2018-07-13 U Садко (2017) WEB-DLRip от GeneralFilm | iTunes 1.09 GB ↑ 313 ↓ 23
2018-07-11 U Садко (2017) WEB-DLRip от GeneralFilm | iTunes 744.08 MB ↑ 222 ↓ 59
2018-07-11 U Садко (2017) WEB-DL 1080p | iTunes 2.73 GB ↑ 831 ↓ 223
2015-12-26 U Садко (1952) DVDRip-AVC от New-Team 1.46 GB ↑ 84 ↓ 18

Отзывы
Зарегистрируйтесь чтобы добавить комментарий.
Обратная связь
Copyleft ©