↑↓Torrent.by
Поиск
Логин: Регистрация
Пароль: Восстановить пароль
Загрузка...

Байки из склепа: Кровавый бордель / Tales from the Crypt: Bordello of Blood (1996) BDRip-AVC от ExKinoRay | P

Скачать bayki-iz-sklepa-krovavyy-bordel-tales-from-the-crypt-bordello-of-blood-1996-bdrip-avc-ot-exkinoray-p.torrent
U Магнитная ссылка Размер: 745.27 MB Раздают: 44 Качают: 5 Добавлен: 2018-08-08 10:45:33
Байки из склепа: Кровавый бордель / Tales from the Crypt: Bordello of Blood (1996) BDRip-AVC от ExKinoRay | P

Название: Байки Из Склепа: Кровавый Бордель
Оригинальное название: Tales from the Crypt: Bordello of Blood
Год выхода: 1996
Жанр:  Ужасы, фэнтези, комедия
Режиссер: Гилберт Адлер
В ролях: Джон Кассир, Дэннис Миллер, Эрика Элениак, Энджи Эверхарт, Крис Сарандон, Кори Фельдман, Обри Моррис, Фил Фондакаро, Уильям Сэдлер, Киара Хантер

О фильме :
Мадам Лилит и ее сексапильные помощницы содержат очень необычный бордель на окраине города. Они берут за услуги не только деньги, но и высасывают из клиентов кровь до последней капли. Хитроватый пройдоха Рэйф Гэттмен тоже попадает в эту переделку и оказывается один на один с дюжиной кровавых вампиров и, мало того, с его Преподобием Джимми Кэррентом, проходимцем, обладающим всемогущим талисманом.

Страна: США
Студия: Universal City Studios, Tales From The Crypt Holdings
Продолжительность: 01:26:32
Перевод: Профессиональный (многоголосый, закадровый) - СТС

Файл
Формат: MKV
Качество: BDRip-AVC (Blu-ray disc)
Видео: MPEG-4 AVC, 768x416, ~ 1127 Кбит/с
Аудио:  AAC-HE, 2 ch, ~ 76 Кбит/с
Субтитры: Нет


[+] MI
Общее
Уникальный идентификатор : 175347132274620917939500373796460310751 (0x83EAA117E7B1B327D2AFAA07C3DA30DF)
Полное имя : D:разноеTales from the Crypt Bordello of Blood.1996.ExKinoRay.mkv
Формат : Matroska
Версия формата : Version 2
Размер файла : 745 Мбайт
Продолжительность : 1 ч. 26 м.
Общий поток : 1204 Кбит/сек
Дата кодирования : UTC 2018-08-07 10:37:46
Программа кодирования : mkvmerge v25.0.0 ('Prog Noir') 64-bit
Библиотека кодирования : libebml v1.3.6 + libmatroska v1.4.9

Видео
Идентификатор : 1
Формат : AVC
Формат/Информация : Advanced Video Codec
Профиль формата : High@L4.1
Параметр CABAC формата : Да
Параметр RefFrames формата : 12 кадров
Идентификатор кодека : V_MPEG4/ISO/AVC
Продолжительность : 1 ч. 26 м.
Битрейт : 1127 Кбит/сек
Ширина : 768 пикселей
Высота : 416 пикселей
Соотношение сторон : 1,85:1
Режим частоты кадров : Постоянный
Частота кадров : 23,976 (24000/1001) кадра/сек
Цветовое пространство : YUV
Субдискретизация насыщенности : 4:2:0
Битовая глубина : 8 бит
Тип развёртки : Прогрессивная
Бит/(Пиксели*Кадры) : 0.147
Размер потока : 697 Мбайт (94%)
Библиотека кодирования : x264 core 152 r2851kMod ba24899
Настройки программы : cabac=1 / ref=12 / deblock=1:-2:-2 / analyse=0x3:0x133 / me=umh / subme=10 / psy=1 / fade_compensate=0.00 / psy_rd=1.00:0.13 / mixed_ref=1 / me_range=32 / chroma_me=1 / trellis=2 / 8x8dct=1 / cqm=0 / deadzone=21,11 / fast_pskip=0 / chroma_qp_offset=-3 / threads=6 / lookahead_threads=1 / sliced_threads=0 / nr=0 / decimate=0 / interlaced=0 / bluray_compat=0 / constrained_intra=0 / bframes=11 / b_pyramid=2 / b_adapt=2 / b_bias=0 / direct=3 / weightb=1 / open_gop=0 / weightp=2 / keyint=240 / keyint_min=23 / scenecut=40 / intra_refresh=0 / rc_lookahead=40 / rc=2pass / mbtree=1 / bitrate=1127 / ratetol=1.0 / qcomp=0.60 / qpmin=0 / qpmax=69 / qpstep=4 / cplxblur=20.0 / qblur=0.5 / ip_ratio=1.40 / aq=3:1.00
Default : Да
Forced : Нет

Аудио
Идентификатор : 2
Формат : AAC
Формат/Информация : Advanced Audio Codec
Профиль формата : HE-AAC / LC
Идентификатор кодека : A_AAC
Продолжительность : 1 ч. 26 м.
Битрейт : 76,0 Кбит/сек
Каналы : 2 канала
Расположение каналов : Front: L R
Частота : 48,0 КГц / 24,0 КГц
Частота кадров : 23,438 кадра/сек (1024 SPF)
Метод сжатия : С потерями
Задержка видео : 31 мс.
Размер потока : 47,0 Мбайт (6%)
Default : Да
Forced : Нет



Скриншоты:
[+] Всего файлов в раздаче - 1:
Tales from the Crypt Bordello of Blood.1996.ExKinoRay.mkv745.27 MB

Текущая раздача:
ДатаКомментарии    РазмерПиры
2018-08-08 U Байки из склепа: Кровавый бордель / Tales from the Crypt: Bordello of Blood (1996) BDRip-AVC от ExKinoRay | P 745.27 MB ↑ 44 ↓ 5

Показать еще раздачи по запросу байки:
2018-07-09 U Ковпак Дмитрий - Уроки мудрости. Притчи, байки и истории от психотерапевта (2018) PDF, FB2, RTF 11.70 MB ↑ 198 ↓ 117
2017-12-31 U Байки из склепа: Кровавый бордель / Tales from the Crypt: Bordello of Blood (1996) BDRip от HQCLUB 1.45 GB ↑ 92 ↓ 24
2017-03-29 U Сборник книг - Байки, истории, сатира (1968-2016) FB2 97.51 MB ↑ 179 ↓ 29
2017-03-08 U Разные - Сборник книг - Байки-истории-рассказы (1968-2016) FB2 3К89.11 MB ↑ 446 ↓ 14
2016-02-25 U Байки из склепа: Кровавый бордель / Bordello of Blood (1996) BDRip-AVC от NNM-CLUB | P, A 2.18 GB ↑ 47 ↓ 11
2016-02-19 U Сергей Козлов – Байки офицерского кафе (2016) MP3 483.28 MB ↑ 168 ↓ 7
2013-11-13 U Тачки Мультачки: Байки Мэтра / Cars Toon: Mater's Tall Tales (2008 - 2011) BDRip 720p от potroks | D 1К1.09 GB ↑ 247 ↓ 3

Отзывы
Зарегистрируйтесь чтобы добавить комментарий.
Обратная связь
Copyleft ©