↑↓Torrent.by
Поиск
Логин: Регистрация
Пароль: Восстановить пароль
Загрузка...

Первая реформатская церковь / First Reformed (2017) WEB-DL 1080p | Sub

Скачать pervaya-reformatskaya-cerkov-first-reformed-2017-web-dl-1080p-sub.torrent
U Магнитная ссылка Размер: 3.89 GB Раздают: 32 Качают: 17 Добавлен: 2018-08-08 16:05:45
Первая реформатская церковь / First Reformed (2017) WEB-DL 1080p | Sub

Название: Первая реформатская церковь
Оригинальное название: First Reformed
Год выхода: 2017
Жанр: Триллер, драма
Режиссер: Пол Шредер
В ролях: Аманда Сайфред, Итэн Хоук, Седрик «Развлекатель», Виктория Хилл, Майкл Гэстон, Филип Эттинджер, Ван Хэнсис, Кристина Алабадо, Билл Хоаг, Иланна Уайт

О фильме:
Армейский священник Толлер, оплакивающий гибель сына-солдата, ищет утешения под сводами церкви. Здесь он знакомится с молодой прихожанкой Мэри, женой рьяного защитника природы. Когда эколог-активист кончает жизнь самоубийством, Толлер и несчастная вдова открывают правду о коррупционном заговоре, в котором замешаны самые почтенные лица, включая священнослужителей.

Страна: США
Студия: Killer Films, Fibonacci Films, Arclight Films
Продолжительность: 01:53:14
Перевод: Субтитры

Файл
Кодек: x264
Качество: WEB-DL 1080p
Видео: MPEG-4 AVC, 4437 Kбит/с, 1438x1080
Звук: Английский | AC3, 6 ch, 384 Кбит/с
Субтитры: Русские, английские


[+] Награды
Венецианский кинофестиваль, 2017 год

Победитель (1):
Приз Green Drop Award

Номинации (1):
Золотой лев



[+] Инфо-файл
Формат                                   : Matroska
Версия формата                           : Version 2
Размер файла                             : 3,89 Гбайт
Продолжительность                        : 1 ч. 53 м.
Общий поток                              : 4919 Кбит/сек
Название фильма                          : First.Reformed.2017.1080p.WEB-DL.by.zzZGVvv
Дата кодирования                         : UTC 2018-08-08 02:38:25
Программа кодирования                    : mkvmerge v5.8.0 ('No Sleep / Pillow') built on Sep  2 2012 15:37:04
Библиотека кодирования                   : libebml v1.2.3 + libmatroska v1.3.0
Attachements                             : cover.jpg

Видео
Идентификатор                            : 1
Формат                                   : AVC
Формат/Информация                        : Advanced Video Codec
Профиль формата                          : High@L4
Параметр CABAC формата                   : Да
Параметр ReFrames формата                : 5 кадров
Идентификатор кодека                     : V_MPEG4/ISO/AVC
Продолжительность                        : 1 ч. 53 м.
Битрейт                                  : 4437 Кбит/сек
Ширина                                   : 1438 пикселей
Высота                                   : 1080 пикселей
Соотношение сторон                       : 4:3
Режим частоты кадров                     : Постоянный
Частота кадров                           : 23,976 кадра/сек
Цветовое пространство                    : YUV
Субдискретизация насыщенности            : 4:2:0
Битовая глубина                          : 8 бит
Тип развёртки                            : Прогрессивная
Бит/(Пиксели*Кадры)                      : 0.119
Размер потока                            : 3,51 Гбайт (90%)
Заголовок                                : First.Reformed.2017.1080p.WEB-DL
Язык                                     : English
Default                                  : Да
Forced                                   : Нет
Цветовой диапазон                        : Limited
Основные цвета                           : BT.709
Характеристики трансфера                 : BT.709
Коэффициенты матрицы                     : BT.709

Аудио
Идентификатор                            : 2
Формат                                   : AC-3
Формат/Информация                        : Audio Coding 3
Расширение режима                        : CM (complete main)
Параметр Endianness формата              : Big
Идентификатор кодека                     : A_AC3
Продолжительность                        : 1 ч. 53 м.
Вид битрейта                             : Постоянный
Битрейт                                  : 384 Кбит/сек
Каналы                                   : 6 каналов
Расположение каналов                     : Front: L C R, Side: L R, LFE
Частота                                  : 48,0 КГц
Метод сжатия                             : С потерями
Размер потока                            : 311 Мбайт (8%)
Язык                                     : English
Default                                  : Да
Forced                                   : Нет

Текст #1
Идентификатор                            : 3
Формат                                   : UTF-8
Идентификатор кодека                     : S_TEXT/UTF8
Идентификатор кодека/Информация          : UTF-8 Plain Text
Язык                                     : Russian
Default                                  : Да
Forced                                   : Нет

Текст #2
Идентификатор                            : 4
Формат                                   : UTF-8
Идентификатор кодека                     : S_TEXT/UTF8
Идентификатор кодека/Информация          : UTF-8 Plain Text
Язык                                     : English
Default                                  : Нет
Forced                                   : Нет

Меню
00:00:00.000                             : en:1
00:07:32.744                             : en:2
00:08:48.360                             : en:3
00:21:52.727                             : en:4
00:30:52.725                             : en:5
00:36:41.949                             : en:6
00:41:54.260                             : en:7
00:50:02.957                             : en:8
00:55:18.480                             : en:9
01:04:40.666                             : en:10
01:10:59.920                             : en:11
01:16:19.239                             : en:12
01:25:24.116                             : en:13
01:30:49.483                             : en:14
01:38:48.962                             : en:15
01:45:22.522                             : en:16




Скриншоты:
[+] Всего файлов в раздаче - 1:
First.Reformed.2017.1080p.WEB-DL.by.zzZGVvv.mkv3.89 GB

Текущая раздача:
ДатаКомментарии    РазмерПиры
2018-08-08 U Первая реформатская церковь / First Reformed (2017) WEB-DL 1080p | Sub 3.89 GB ↑ 32 ↓ 17

Показать еще раздачи по запросу первая:
2018-07-29 U КВН-2018. Премьер-лига. 1/8 финала. Игра первая [28.07] (2018) HDTV 1080i от GeneralFilm 4.21 GB ↑ 85 ↓ 70
2018-07-29 U КВН-2018. Премьер-лига. 1/8 финала. Игра первая [28.07] (2018) HDTVRip от GeneralFilm 1.06 GB ↑ 349 ↓ 266
2018-05-11 U Тармашев Сергей - Древний. Предыстория. Книга первая (2018) MP3 1.03 GB ↑ 242 ↓ 25
2018-04-23 U КВН-2018. Высшая лига. 1/4 финала. Игра первая [22.04] (2018) HDTV 1080i от GeneralFilm 7.55 GB ↑ 157 ↓ 55
2018-04-23 U КВН-2018. Высшая лига. 1/4 финала. Игра первая [22.04] (2018) HDTVRip от GeneralFilm 1.71 GB ↑ 492 ↓ 167
2018-04-22 U КВН-2018. Высшая лига. 1/4 финала. Игра первая [22.04] (2018) DVB 2.33 GB ↑ 486 ↓ 517
2018-04-03 U Лига смеха. Первая 1/8 финала [04x05] (2018) WEB-DL 1080p 2.81 GB ↑ 56 ↓ 22

Отзывы
Зарегистрируйтесь чтобы добавить комментарий.
Обратная связь
Copyleft ©